<?xml version="1.0" standalone="no"?>
<!DOCTYPE svg PUBLIC "-//W3C//DTD SVG 1.1//EN" "http://www.w3.org/Graphics/SVG/1.1/DTD/svg11.dtd" >
<svg xmlns="http://www.w3.org/2000/svg" xmlns:xlink="http://www.w3.org/1999/xlink" version="1.1">
<metadata>
Created by FontForge 20170910 at Tue Sep 19 23:59:25 2017
 By Jimmy Wärting
Copyright 2015 Google Inc. All Rights Reserved.
</metadata>
<defs>
<font id="NotoSans-Medium" horiz-adv-x="0" >
  <font-face 
    font-family="Noto Sans Med"
    font-weight="500"
    font-stretch="normal"
    units-per-em="1000"
    panose-1="2 11 6 2 4 5 4 2 2 4"
    ascent="800"
    descent="-200"
    x-height="539"
    cap-height="714"
    bbox="-622 -389 2800 1067"
    underline-thickness="50"
    underline-position="-125"
    unicode-range="U+000D-FFFD"
  />
<missing-glyph horiz-adv-x="600" 
d="M94 0v714h411v-714h-411zM145 51h309v612h-309v-612z" />
    <glyph glyph-name=".notdef" horiz-adv-x="600" 
d="M94 0v714h411v-714h-411zM145 51h309v612h-309v-612z" />
    <glyph glyph-name="NULL" 
 />
    <glyph glyph-name="NULL" 
 />
    <glyph glyph-name="CR" unicode="&#xd;" horiz-adv-x="260" 
 />
    <glyph glyph-name="space" unicode=" " horiz-adv-x="260" 
 />
    <glyph glyph-name="exclam" unicode="!" horiz-adv-x="274" 
d="M175 212h-75l-25 502h125zM68 59q0 39 20 55t49 16q27 0 47.5 -16t20.5 -55t-20.5 -56t-47.5 -17q-29 0 -49 17t-20 56z" />
    <glyph glyph-name="quotedbl" unicode="&#x22;" horiz-adv-x="427" 
d="M172 714l-20 -258h-67l-20 258h107zM362 714l-20 -258h-67l-20 258h107z" />
    <glyph glyph-name="numbersign" unicode="#" horiz-adv-x="646" 
d="M482 429l-28 -146h133v-77h-148l-40 -206h-82l40 206h-129l-38 -206h-80l37 206h-123v77h138l29 146h-130v77h144l39 208h83l-40 -208h131l39 208h80l-40 -208h124v-77h-139zM243 283h129l29 146h-129z" />
    <glyph glyph-name="dollar" unicode="$" horiz-adv-x="572" 
d="M253 -58v104q-59 2 -110 11t-86 25v98q36 -17 90 -30.5t106 -14.5v187q-104 32 -150.5 73.5t-46.5 113.5q0 74 54 117t143 49v84h65v-83q54 -2 99 -12t85 -27l-33 -86q-35 13 -74 23t-77 13v-184q62 -19 108 -41.5t70.5 -55t24.5 -85.5q0 -71 -52 -116t-151 -55v-108h-65
zM253 426v159q-47 -4 -70 -23t-23 -48q0 -34 20.5 -53.5t72.5 -34.5zM318 139q51 6 75 25.5t24 50.5q0 32 -21.5 50t-77.5 34v-160z" />
    <glyph glyph-name="percent" unicode="%" horiz-adv-x="852" 
d="M196 724q76 0 116 -58.5t40 -164.5t-37.5 -165.5t-118.5 -59.5q-74 0 -113 59.5t-39 165.5t36 164.5t116 58.5zM668 714l-396 -714h-89l396 714h89zM196 650q-65 0 -65 -149q0 -151 65 -151q69 0 69 151q0 149 -69 149zM652 438q76 0 116 -58.5t40 -164.5t-38 -165.5
t-118 -59.5q-75 0 -114 59.5t-39 165.5t36.5 164.5t116.5 58.5zM652 364q-65 0 -65 -149q0 -150 65 -150q68 0 68 150q0 149 -68 149z" />
    <glyph glyph-name="ampersand" unicode="&#x26;" horiz-adv-x="737" 
d="M306 725q82 0 131.5 -40.5t49.5 -114.5q0 -64 -41 -109t-102 -81l177 -171q24 31 40 71t27 85h108q-15 -62 -40.5 -119.5t-65.5 -103.5l146 -142h-138l-78 75q-46 -38 -102.5 -61.5t-133.5 -23.5q-109 0 -172 52.5t-63 145.5q0 76 39.5 122.5t107.5 85.5q-34 38 -58 78
t-24 92q0 74 52 116.5t140 42.5zM303 640q-37 0 -62 -19t-25 -57q0 -33 17 -61.5t48 -61.5q55 31 79.5 59t24.5 66q0 34 -23.5 54t-58.5 20zM259 331q-47 -29 -73 -59.5t-26 -77.5q0 -51 35.5 -81.5t93.5 -30.5q55 0 95.5 17t69.5 42z" />
    <glyph glyph-name="quotesingle" unicode="'" horiz-adv-x="237" 
d="M172 714l-20 -258h-67l-20 258h107z" />
    <glyph glyph-name="parenleft" unicode="(" horiz-adv-x="312" 
d="M40 274q0 122 35.5 235.5t111.5 204.5h95q-70 -94 -105.5 -207t-35.5 -232q0 -116 35.5 -228t104.5 -205h-94q-76 88 -111.5 199.5t-35.5 232.5z" />
    <glyph glyph-name="parenright" unicode=")" horiz-adv-x="312" 
d="M272 274q0 -121 -35.5 -232.5t-111.5 -199.5h-94q68 93 103.5 205t35.5 228q0 119 -35.5 232t-104.5 207h95q76 -91 111.5 -204.5t35.5 -235.5z" />
    <glyph glyph-name="asterisk" unicode="*" horiz-adv-x="549" 
d="M326 760l-20 -188l189 53l15 -101l-179 -15l116 -154l-93 -50l-83 168l-74 -168l-96 50l114 154l-177 15l16 101l186 -53l-21 188h107z" />
    <glyph glyph-name="plus" unicode="+" horiz-adv-x="572" 
d="M326 393h196v-81h-196v-201h-82v201h-196v81h196v202h82v-202z" />
    <glyph glyph-name="comma" unicode="," horiz-adv-x="273" 
d="M194 116l7 -11q-13 -53 -37 -116.5t-49 -117.5h-77q14 58 28 125.5t22 119.5h106z" />
    <glyph glyph-name="hyphen" unicode="-" horiz-adv-x="322" 
d="M37 223v90h248v-90h-248z" />
    <glyph glyph-name="period" unicode="." horiz-adv-x="273" 
d="M68 59q0 39 20 55t48 16t48.5 -16t20.5 -55t-20.5 -56t-48.5 -17t-48 17t-20 56z" />
    <glyph glyph-name="slash" unicode="/" horiz-adv-x="384" 
d="M376 714l-266 -714h-101l266 714h101z" />
    <glyph glyph-name="zero" unicode="0" horiz-adv-x="572" 
d="M527 358q0 -116 -24 -198t-77.5 -126t-140.5 -44q-123 0 -181.5 97.5t-58.5 270.5q0 116 23.5 198t76.5 125.5t140 43.5q122 0 182 -96.5t60 -270.5zM151 358q0 -140 30 -209.5t104 -69.5q73 0 104 69t31 210q0 139 -31 208.5t-104 69.5q-74 0 -104 -69.5t-30 -208.5z
" />
    <glyph glyph-name="one" unicode="1" horiz-adv-x="572" 
d="M372 0h-105v474q0 38 1 68.5t3 59.5q-13 -14 -27 -26t-32 -27l-78 -63l-54 68l204 160h88v-714z" />
    <glyph glyph-name="two" unicode="2" horiz-adv-x="572" 
d="M526 0h-480v82l184 187q54 55 90 95.5t54 78t18 81.5q0 54 -31.5 82t-83.5 28q-49 0 -88 -18t-81 -52l-57 71q43 36 98 62.5t131 26.5q101 0 160 -52t59 -139q0 -57 -23 -106t-65 -97t-99 -102l-133 -129v-5h347v-94z" />
    <glyph glyph-name="three" unicode="3" horiz-adv-x="572" 
d="M498 549q0 -73 -41 -116t-108 -57v-4q85 -10 128 -54t43 -114q0 -62 -29.5 -110.5t-91 -76t-157.5 -27.5q-57 0 -106 9t-93 30v96q45 -23 97 -35t98 -12q92 0 131.5 34.5t39.5 96.5q0 60 -48 88t-144 28h-65v87h66q91 0 132 34t41 89q0 48 -31.5 74.5t-90.5 26.5
q-55 0 -95.5 -17.5t-75.5 -40.5l-52 73q40 30 96 51.5t130 21.5q111 0 168.5 -48.5t57.5 -126.5z" />
    <glyph glyph-name="four" unicode="4" horiz-adv-x="572" 
d="M553 158h-99v-158h-103v158h-331v84l329 475h105v-469h99v-90zM351 248v194q0 47 1.5 88.5t3.5 69.5h-4q-8 -20 -20 -41t-23 -37l-189 -274h231z" />
    <glyph glyph-name="five" unicode="5" horiz-adv-x="572" 
d="M282 443q106 0 171 -55t65 -157q0 -113 -71 -177t-201 -64q-56 0 -104.5 10t-82.5 29v97q36 -21 87.5 -34t98.5 -13q75 0 120 34.5t45 107.5q0 65 -40.5 99.5t-127.5 34.5q-28 0 -62.5 -5t-55.5 -10l-49 29l27 345h367v-94h-275l-16 -187q17 3 43 6.5t61 3.5z" />
    <glyph glyph-name="six" unicode="6" horiz-adv-x="572" 
d="M49 304q0 62 8.5 122t30 113.5t59.5 95t96.5 65t141.5 23.5q21 0 47.5 -1.5t43.5 -6.5v-89q-19 6 -41.5 9t-44.5 3q-69 0 -114 -21t-71 -58t-38 -86t-15 -105h6q22 35 62 59.5t103 24.5q93 0 149.5 -57.5t56.5 -162.5q0 -112 -62.5 -177t-169.5 -65q-69 0 -125.5 34
t-89.5 103.5t-33 176.5zM296 78q57 0 93 37.5t36 116.5q0 63 -31.5 100t-94.5 37q-43 0 -75 -18t-50 -46t-18 -57q0 -40 16 -79.5t47 -65t77 -25.5z" />
    <glyph glyph-name="seven" unicode="7" horiz-adv-x="572" 
d="M129 0l285 620h-375v94h489v-76l-284 -638h-115z" />
    <glyph glyph-name="eight" unicode="8" horiz-adv-x="572" 
d="M285 724q63 0 112 -19.5t77.5 -58t28.5 -94.5q0 -64 -39 -105t-94 -69q42 -21 77.5 -47.5t57 -62t21.5 -83.5q0 -60 -30 -103.5t-83.5 -67.5t-125.5 -24q-116 0 -179 50.5t-63 141.5q0 48 20 84.5t53 62.5t72 44q-52 30 -87 72.5t-35 107.5q0 55 29 93.5t78 58t110 19.5z
M284 641q-50 0 -82 -24.5t-32 -69.5q0 -50 34.5 -77.5t83.5 -49.5q46 20 79 49t33 78q0 45 -32 69.5t-84 24.5zM147 184q0 -48 34 -80t104 -32q68 0 103.5 31.5t35.5 81.5q0 49 -39 81t-97 57l-15 6q-61 -26 -93.5 -60.5t-32.5 -84.5z" />
    <glyph glyph-name="nine" unicode="9" horiz-adv-x="572" 
d="M525 409q0 -61 -8.5 -121.5t-30 -114t-59.5 -95t-97 -65t-142 -23.5q-20 0 -47.5 2t-44.5 7v89q19 -6 42.5 -9t45.5 -3q69 0 114 20.5t71 57.5t38 85.5t14 104.5h-6q-22 -34 -61 -58.5t-105 -24.5q-92 0 -148 57.5t-56 161.5q0 113 63 178t169 65q69 0 125.5 -34
t89.5 -103.5t33 -176.5zM278 636q-57 0 -93 -38t-36 -116q0 -64 31 -101t94 -37q44 0 76.5 18t50 46t17.5 58q0 40 -15.5 79t-47 65t-77.5 26z" />
    <glyph glyph-name="colon" unicode=":" horiz-adv-x="273" 
d="M68 479q0 41 20 57t48 16t48.5 -16t20.5 -57q0 -38 -20.5 -55t-48.5 -17t-48 17t-20 55zM68 59q0 39 20 55t48 16t48.5 -16t20.5 -55t-20.5 -56t-48.5 -17t-48 17t-20 56z" />
    <glyph glyph-name="semicolon" unicode=";" horiz-adv-x="273" 
d="M66 479q0 41 20 57t49 16t49 -16t20 -57q0 -38 -20 -55t-49 -17t-49 17t-20 55zM188 116l7 -11q-13 -53 -37.5 -116.5t-48.5 -117.5h-78q14 57 28.5 125t21.5 120h107z" />
    <glyph glyph-name="less" unicode="&#x3c;" horiz-adv-x="572" 
d="M523 111l-475 209v56l475 237v-89l-364 -172l364 -152v-89z" />
    <glyph glyph-name="equal" unicode="=" horiz-adv-x="572" 
d="M52 410v81h466v-81h-466zM52 213v82h466v-82h-466z" />
    <glyph glyph-name="greater" unicode="&#x3e;" horiz-adv-x="572" 
d="M48 200l364 152l-364 172v89l475 -237v-56l-475 -209v89z" />
    <glyph glyph-name="question" unicode="?" horiz-adv-x="447" 
d="M139 212v29q0 55 18.5 90.5t67.5 75.5q36 29 56.5 49.5t29.5 41t9 47.5q0 43 -29 66t-82 23q-47 0 -86 -12.5t-76 -30.5l-38 80q43 23 94 38t113 15q98 0 151.5 -48t53.5 -128q0 -44 -14 -75t-40.5 -57t-62.5 -56q-32 -26 -49 -45t-23 -38t-6 -45v-20h-87zM118 59
q0 39 19.5 55t49.5 16q28 0 48 -16t20 -55t-20 -56t-48 -17q-30 0 -49.5 17t-19.5 56z" />
    <glyph glyph-name="at" unicode="@" horiz-adv-x="898" 
d="M843 357q0 -46 -11 -90t-33 -80t-55 -57.5t-77 -21.5q-43 0 -70 23.5t-34 56.5h-6q-19 -34 -53 -57t-86 -23q-80 0 -123.5 51.5t-43.5 136.5q0 66 27 117t76 80t116 29q45 0 89.5 -7.5t70.5 -17.5l-10 -203q-1 -16 -1 -24.5v-11.5q0 -49 16.5 -64.5t37.5 -15.5
q29 0 48.5 24.5t30 65t10.5 90.5q0 90 -36.5 153t-100 96t-144.5 33q-111 0 -187.5 -46t-116 -126t-39.5 -184q0 -144 76.5 -221t220.5 -77q60 0 117.5 13.5t103.5 30.5v-76q-44 -19 -99.5 -30.5t-120.5 -11.5q-120 0 -205 44t-130 126.5t-45 198.5q0 93 29.5 171.5
t84.5 137.5t133.5 91.5t177.5 32.5q105 0 187 -43t128.5 -123t46.5 -191zM339 294q0 -62 24.5 -89t66.5 -27q54 0 77.5 40t27.5 105l6 120q-13 4 -31 6.5t-38 2.5q-48 0 -77.5 -23t-42.5 -59t-13 -76z" />
    <glyph glyph-name="A" unicode="A" horiz-adv-x="654" 
d="M540 0l-76 206h-276l-76 -206h-112l271 717h112l270 -717h-113zM434 300l-72 201q-4 11 -11 33t-14 46t-11 39q-8 -31 -18 -66t-16 -52l-72 -201h214z" />
    <glyph glyph-name="B" unicode="B" horiz-adv-x="656" 
d="M95 714h209q136 0 206.5 -40t70.5 -138q0 -62 -33.5 -104t-95.5 -53v-5q42 -8 76.5 -26.5t54.5 -53t20 -90.5q0 -98 -68 -151t-184 -53h-256v714zM203 416h119q84 0 115.5 27t31.5 80t-38.5 76.5t-120.5 23.5h-107v-207zM203 328v-238h131q86 0 120.5 34t34.5 90
q0 51 -35.5 82.5t-126.5 31.5h-124z" />
    <glyph glyph-name="C" unicode="C" horiz-adv-x="633" 
d="M400 631q-106 0 -166.5 -73.5t-60.5 -201.5q0 -127 56 -200t170 -73q46 0 88.5 8.5t86.5 22.5v-93q-42 -16 -86 -23.5t-102 -7.5q-110 0 -182.5 45.5t-108 128t-35.5 193.5q0 108 39.5 190.5t115.5 129.5t186 47q54 0 105.5 -11.5t94.5 -32.5l-40 -90q-35 16 -75 28.5
t-86 12.5z" />
    <glyph glyph-name="D" unicode="D" horiz-adv-x="733" 
d="M673 364q0 -181 -99.5 -272.5t-278.5 -91.5h-200v714h221q109 0 189 -40t124 -118t44 -192zM560 361q0 135 -65 198.5t-186 63.5h-106v-532h87q270 0 270 270z" />
    <glyph glyph-name="E" unicode="E" horiz-adv-x="557" 
d="M497 0h-402v714h402v-92h-294v-204h276v-91h-276v-234h294v-93z" />
    <glyph glyph-name="F" unicode="F" horiz-adv-x="528" 
d="M202 0h-107v714h402v-92h-295v-233h276v-92h-276v-297z" />
    <glyph glyph-name="G" unicode="G" horiz-adv-x="727" 
d="M393 384h258v-356q-57 -19 -116.5 -28.5t-135.5 -9.5q-164 0 -251.5 97t-87.5 270q0 112 43.5 194.5t126.5 127.5t201 45q59 0 113 -12t100 -31l-39 -90q-37 17 -83 28.5t-95 11.5q-79 0 -136.5 -33.5t-88 -95.5t-30.5 -146q0 -80 25 -142t79 -97t141 -35q43 0 72.5 4.5
t54.5 10.5v194h-151v93z" />
    <glyph glyph-name="H" unicode="H" horiz-adv-x="748" 
d="M652 0h-108v326h-341v-326h-108v714h108v-296h341v296h108v-714z" />
    <glyph glyph-name="I" unicode="I" horiz-adv-x="354" 
d="M315 0h-277v62l85 25v539l-85 26v62h277v-62l-84 -26v-539l84 -25v-62z" />
    <glyph glyph-name="J" unicode="J" horiz-adv-x="290" 
d="M2 -196q-26 0 -45.5 3.5t-33.5 9.5v90q16 -4 34 -7t38 -3q25 0 47 10t35.5 35.5t13.5 73.5v698h108v-693q0 -113 -54.5 -165t-142.5 -52z" />
    <glyph glyph-name="K" unicode="K" horiz-adv-x="632" 
d="M632 0h-125l-234 329l-70 -58v-271h-108v714h108v-345q25 30 52 60t52 61l193 224h124l-273 -312z" />
    <glyph glyph-name="L" unicode="L" horiz-adv-x="536" 
d="M95 0v714h108v-621h305v-93h-413z" />
    <glyph glyph-name="M" unicode="M" horiz-adv-x="918" 
d="M406 0l-216 607h-4q2 -21 3.5 -54.5t2.5 -73t1 -76.5v-403h-98v714h154l205 -573h4l211 573h154v-714h-105v409q0 35 1.5 72t3 70l2.5 55h-4l-222 -606h-93z" />
    <glyph glyph-name="N" unicode="N" horiz-adv-x="776" 
d="M681 0h-131l-361 577h-4q2 -40 4.5 -91.5t3.5 -105.5v-380h-98v714h130l360 -574h3q-1 21 -2.5 53t-2.5 68.5t-2 68.5v384h100v-714z" />
    <glyph glyph-name="O" unicode="O" horiz-adv-x="785" 
d="M725 358q0 -111 -37 -193.5t-111 -128.5t-184 -46q-113 0 -187 46t-110 129t-36 194q0 110 36 192.5t110 128t188 45.5q110 0 183.5 -45.5t110.5 -128t37 -193.5zM174 358q0 -128 53 -202t166 -74q114 0 166 74t52 202t-52 201t-165 73q-114 0 -167 -73t-53 -201z" />
    <glyph glyph-name="P" unicode="P" horiz-adv-x="612" 
d="M295 714q140 0 204 -56.5t64 -157.5q0 -60 -26.5 -112t-88.5 -84.5t-168 -32.5h-77v-271h-108v714h200zM287 623h-84v-261h65q91 0 137.5 30.5t46.5 103.5q0 64 -40 95.5t-125 31.5z" />
    <glyph glyph-name="Q" unicode="Q" horiz-adv-x="785" 
d="M725 358q0 -128 -49.5 -219t-148.5 -127l171 -182h-148l-136 161q-5 0 -10.5 -0.5t-10.5 -0.5q-113 0 -187 46t-110 129t-36 194q0 110 36 192.5t110 128t188 45.5q110 0 183.5 -45.5t110.5 -128t37 -193.5zM174 358q0 -128 53 -202t166 -74q114 0 166 74t52 202t-52 201
t-165 73q-114 0 -167 -73t-53 -201z" />
    <glyph glyph-name="R" unicode="R" horiz-adv-x="633" 
d="M295 714q137 0 202.5 -51t65.5 -155q0 -55 -20 -92.5t-52.5 -61.5t-67.5 -37l200 -317h-124l-172 289h-124v-289h-108v714h200zM288 622h-85v-243h90q83 0 121 31.5t38 93.5q0 64 -40 91t-124 27z" />
    <glyph glyph-name="S" unicode="S" horiz-adv-x="550" 
d="M505 193q0 -95 -69 -149t-189 -54q-59 0 -110 9.5t-87 27.5v102q40 -18 94 -32.5t110 -14.5q72 0 108 28t36 75q0 33 -16 55.5t-51.5 42t-92.5 41.5q-52 20 -93 47t-64 67t-23 98q0 88 64 138t168 50q58 0 107.5 -12t94.5 -31l-34 -89q-41 17 -83.5 28t-87.5 11
q-59 0 -90 -26t-31 -68q0 -33 15 -55.5t48 -41t87 -39.5q60 -24 102.5 -50.5t64.5 -64t22 -93.5z" />
    <glyph glyph-name="T" unicode="T" horiz-adv-x="563" 
d="M335 0h-108v621h-214v93h536v-93h-214v-621z" />
    <glyph glyph-name="U" unicode="U" horiz-adv-x="738" 
d="M649 714v-462q0 -74 -30.5 -133.5t-93.5 -94t-159 -34.5q-136 0 -206.5 72.5t-70.5 191.5v460h108v-455q0 -177 174 -177q90 0 130.5 48t40.5 130v454h107z" />
    <glyph glyph-name="V" unicode="V" horiz-adv-x="615" 
d="M615 714l-252 -714h-112l-251 714h111l153 -448q13 -36 25 -79t18 -78q6 35 18 78t25 80l153 447h112z" />
    <glyph glyph-name="W" unicode="W" horiz-adv-x="941" 
d="M932 714l-188 -714h-115l-126 441q-7 24 -14.5 54t-13.5 56.5t-8 37.5q-1 -11 -6 -37t-12 -57t-15 -57l-124 -438h-115l-187 714h111l105 -422q10 -44 19.5 -91t14.5 -84q5 38 15.5 87t21.5 88l119 422h108l123 -424q12 -40 22 -89t15 -84q4 37 14 84t21 91l105 422h110z
" />
    <glyph glyph-name="X" unicode="X" horiz-adv-x="610" 
d="M607 0h-123l-182 298l-184 -298h-115l237 371l-222 343h120l168 -273l169 273h115l-222 -344z" />
    <glyph glyph-name="Y" unicode="Y" horiz-adv-x="583" 
d="M292 380l175 334h116l-238 -437v-277h-107v273l-238 441h117z" />
    <glyph glyph-name="Z" unicode="Z" horiz-adv-x="574" 
d="M539 0h-505v77l366 544h-355v93h485v-77l-366 -544h375v-93z" />
    <glyph glyph-name="bracketleft" unicode="[" horiz-adv-x="330" 
d="M305 -158h-228v872h228v-81h-130v-710h130v-81z" />
    <glyph glyph-name="backslash" unicode="\" horiz-adv-x="384" 
d="M109 714l267 -714h-101l-266 714h100z" />
    <glyph glyph-name="bracketright" unicode="]" horiz-adv-x="330" 
d="M25 -77h129v710h-129v81h228v-872h-228v81z" />
    <glyph glyph-name="asciicircum" unicode="^" horiz-adv-x="572" 
d="M34 263l212 456h56l236 -456h-89l-173 346l-154 -346h-88z" />
    <glyph glyph-name="underscore" unicode="_" horiz-adv-x="434" 
d="M436 -155h-438v65h438v-65z" />
    <glyph glyph-name="grave" unicode="`" horiz-adv-x="305" 
d="M163 766q12 -22 30 -49.5t37.5 -54t34.5 -44.5v-12h-71q-24 18 -54.5 46.5t-58 57t-41.5 46.5v10h123z" />
    <glyph glyph-name="a" unicode="a" horiz-adv-x="574" 
d="M292 549q101 0 151.5 -44.5t50.5 -139.5v-365h-75l-21 75h-4q-35 -44 -73.5 -64.5t-106.5 -20.5q-73 0 -121 39.5t-48 123.5q0 83 62.5 125.5t190.5 46.5l92 3v30q0 59 -27 83.5t-76 24.5q-41 0 -79 -12t-73 -29l-34 77q38 20 87.5 33.5t103.5 13.5zM389 259l-72 -2
q-92 -4 -127.5 -31t-35.5 -74q0 -42 25 -61t65 -19q62 0 103.5 35t41.5 105v47z" />
    <glyph glyph-name="b" unicode="b" horiz-adv-x="620" 
d="M189 760v-183q0 -32 -1.5 -62.5t-3.5 -46.5h5q23 34 62 57t101 23q97 0 156.5 -70t59.5 -208q0 -139 -60 -209.5t-157 -70.5q-62 0 -100.5 22.5t-61.5 53.5h-8l-20 -66h-78v760h106zM327 462q-77 0 -107 -45.5t-31 -139.5v-8q0 -93 29.5 -142.5t110.5 -49.5q65 0 97.5 50
t32.5 144q0 191 -132 191z" />
    <glyph glyph-name="c" unicode="c" horiz-adv-x="490" 
d="M300 -10q-112 0 -180 66.5t-68 209.5q0 100 33 162t91 91.5t132 29.5q45 0 84.5 -9t65.5 -22l-32 -86q-28 10 -59 18.5t-60 8.5q-146 0 -146 -192q0 -92 36 -140t106 -48q44 0 79 10t64 26v-92q-29 -17 -63 -25t-83 -8z" />
    <glyph glyph-name="d" unicode="d" horiz-adv-x="620" 
d="M268 -10q-98 0 -157 70t-59 208q0 139 60 210t158 71q61 0 100 -23t63 -56h6q-2 14 -5 41t-3 47v202h106v-760h-83l-18 72h-5q-23 -34 -62 -58t-101 -24zM293 77q78 0 109.5 43t32.5 131v16q0 95 -30.5 145t-112.5 50q-65 0 -98 -52t-33 -144q0 -91 33 -140t99 -49z" />
    <glyph glyph-name="e" unicode="e" horiz-adv-x="572" 
d="M295 549q106 0 167 -65.5t61 -178.5v-58h-362q2 -83 43.5 -127t116.5 -44q52 0 92.5 9.5t83.5 28.5v-88q-41 -19 -82 -27.5t-98 -8.5q-78 0 -138 31t-93.5 92t-33.5 152t30.5 154t85 96.5t127.5 33.5zM295 467q-57 0 -91.5 -37t-40.5 -105h254q-1 63 -30.5 102.5
t-91.5 39.5z" />
    <glyph glyph-name="f" unicode="f" horiz-adv-x="357" 
d="M346 458h-133v-458h-106v458h-91v50l91 33v34q0 103 47.5 146.5t132.5 43.5q35 0 64 -6t49 -13l-27 -81q-17 5 -38 9.5t-43 4.5q-79 0 -79 -105v-35h133v-81z" />
    <glyph glyph-name="g" unicode="g" horiz-adv-x="620" 
d="M269 549q52 0 94 -20t71 -61h5l12 71h86v-546q0 -233 -249 -233q-58 0 -107 8t-90 25v93q42 -21 93.5 -31.5t109.5 -10.5q65 0 101.5 37.5t36.5 105.5v18q0 13 1 34t2 32h-4q-28 -42 -68.5 -61.5t-93.5 -19.5q-102 0 -159.5 73.5t-57.5 204.5q0 130 57.5 205.5
t159.5 75.5zM291 461q-63 0 -96.5 -49.5t-33.5 -144.5q0 -94 33.5 -143t98.5 -49q74 0 108.5 40.5t34.5 132.5v20q0 104 -35 148.5t-110 44.5z" />
    <glyph glyph-name="h" unicode="h" horiz-adv-x="630" 
d="M189 760v-203q0 -25 -2 -50t-4 -41h7q26 41 69.5 61.5t94.5 20.5q95 0 145.5 -47t50.5 -150v-351h-105v336q0 126 -111 126q-83 0 -114 -50t-31 -141v-271h-106v760h106z" />
    <glyph glyph-name="i" unicode="i" horiz-adv-x="272" 
d="M137 744q24 0 42 -14t18 -47q0 -32 -18 -46.5t-42 -14.5q-25 0 -43 14.5t-18 46.5q0 33 18 47t43 14zM189 539v-539h-106v539h106z" />
    <glyph glyph-name="j" unicode="j" horiz-adv-x="272" 
d="M76 683q0 33 18 47t43 14q24 0 42 -14t18 -47q0 -32 -18 -46.5t-42 -14.5q-25 0 -43 14.5t-18 46.5zM26 -240q-26 0 -47.5 3.5t-36.5 8.5v85q16 -5 32 -7.5t36 -2.5q32 0 52.5 17.5t20.5 66.5v608h106v-613q0 -75 -38.5 -120.5t-124.5 -45.5z" />
    <glyph glyph-name="k" unicode="k" horiz-adv-x="559" 
d="M188 760v-380q0 -20 -2 -48t-3 -50h3q11 15 30.5 39.5t34.5 40.5l165 177h123l-217 -231l231 -308h-125l-178 241l-62 -52v-189h-105v760h105z" />
    <glyph glyph-name="l" unicode="l" horiz-adv-x="272" 
d="M189 0h-106v760h106v-760z" />
    <glyph glyph-name="m" unicode="m" horiz-adv-x="949" 
d="M687 549q91 0 137 -47t46 -151v-351h-106v337q0 125 -101 125q-72 0 -103 -44.5t-31 -127.5v-290h-105v337q0 125 -102 125q-76 0 -104.5 -49t-28.5 -141v-272h-106v539h84l15 -72h6q25 42 67.5 62t90.5 20q124 0 164 -87h8q26 44 72 65.5t97 21.5z" />
    <glyph glyph-name="n" unicode="n" horiz-adv-x="630" 
d="M356 549q94 0 144 -47t50 -151v-351h-105v336q0 126 -111 126q-82 0 -113.5 -49t-31.5 -141v-272h-106v539h84l15 -72h6q26 42 71.5 62t96.5 20z" />
    <glyph glyph-name="o" unicode="o" horiz-adv-x="609" 
d="M558 270q0 -134 -69 -207t-186 -73q-73 0 -129.5 32.5t-89 95t-32.5 152.5q0 134 68 206.5t186 72.5q74 0 130.5 -32.5t89 -94.5t32.5 -152zM161 270q0 -91 34.5 -142t109.5 -51t109.5 51t34.5 142q0 92 -34.5 141.5t-110.5 49.5q-75 0 -109 -49.5t-34 -141.5z" />
    <glyph glyph-name="p" unicode="p" horiz-adv-x="620" 
d="M352 549q98 0 157 -70t59 -209q0 -137 -60 -208.5t-157 -71.5q-61 0 -100 22.5t-62 53.5h-7q2 -18 4.5 -42.5t2.5 -43.5v-220h-106v779h86l15 -72h5q23 34 61.5 58t101.5 24zM327 462q-75 0 -106 -43t-32 -132v-16q0 -94 30 -144t110 -50q66 0 98 54t32 141
q0 88 -32.5 139t-99.5 51z" />
    <glyph glyph-name="q" unicode="q" horiz-adv-x="620" 
d="M431 -240v229q0 19 1.5 42t4.5 41h-6q-23 -34 -62.5 -58t-101.5 -24q-96 0 -155.5 70t-59.5 208q0 139 60.5 210t157.5 71q62 0 101 -23.5t63 -58.5h4l13 72h86v-779h-106zM294 76q76 0 108 42.5t33 130.5v18q0 96 -31 145.5t-112 49.5q-66 0 -98.5 -52t-32.5 -144
q0 -91 32.5 -140.5t100.5 -49.5z" />
    <glyph glyph-name="r" unicode="r" horiz-adv-x="425" 
d="M349 549q32 0 59 -5l-11 -99q-26 7 -54 7q-41 0 -76 -20t-56.5 -57.5t-21.5 -90.5v-284h-106v539h84l14 -96h4q25 43 67 74.5t97 31.5z" />
    <glyph glyph-name="s" unicode="s" horiz-adv-x="484" 
d="M441 152q0 -80 -57.5 -121t-161.5 -41q-57 0 -97.5 8t-74.5 25v93q35 -17 82.5 -30.5t92.5 -13.5q60 0 86.5 19t26.5 51q0 18 -10 32.5t-37.5 30t-80.5 35.5q-52 20 -87.5 41t-54.5 50t-19 73q0 70 56.5 107.5t149.5 37.5q49 0 92.5 -10t84.5 -28l-35 -81
q-35 15 -72 25.5t-75 10.5q-98 0 -98 -57q0 -19 11.5 -33t40 -28t79.5 -34q49 -19 84.5 -39.5t54.5 -49.5t19 -73z" />
    <glyph glyph-name="t" unicode="t" horiz-adv-x="383" 
d="M277 76q45 0 81 13v-80q-17 -8 -46 -13.5t-58 -5.5q-44 0 -80.5 15t-58.5 52t-22 103v298h-75v48l79 40l37 114h65v-121h154v-81h-154v-296q0 -44 21.5 -65t56.5 -21z" />
    <glyph glyph-name="u" unicode="u" horiz-adv-x="630" 
d="M547 539v-539h-85l-15 71h-5q-26 -42 -72 -61.5t-97 -19.5q-95 0 -145 46.5t-50 149.5v353h107v-337q0 -63 26.5 -94t82.5 -31q83 0 115 48.5t32 140.5v273h106z" />
    <glyph glyph-name="v" unicode="v" horiz-adv-x="526" 
d="M204 0l-204 539h112l112 -315q10 -32 21 -70t15 -63h4q4 25 16 63.5t22 69.5l112 315h112l-205 -539h-117z" />
    <glyph glyph-name="w" unicode="w" horiz-adv-x="807" 
d="M524 1l-77 269q-7 26 -16 59.5t-16 64t-11 47.5h-4q-3 -17 -10 -47.5t-15.5 -64t-16.5 -60.5l-80 -268h-118l-149 539h108l70 -273q11 -42 20.5 -89.5t13.5 -76.5h4q3 17 8.5 45.5t12 56.5t12.5 46l86 291h116l84 -291q6 -20 13 -47.5t12.5 -54.5t7.5 -45h4q2 16 7 44
t12.5 60t14.5 61l72 273h107l-151 -539h-121z" />
    <glyph glyph-name="x" unicode="x" horiz-adv-x="543" 
d="M206 275l-183 264h121l128 -194l128 194h120l-183 -264l192 -275h-120l-137 206l-138 -206h-120z" />
    <glyph glyph-name="y" unicode="y" horiz-adv-x="527" 
d="M1 539h114l112 -306q13 -35 23 -67t14 -64h4q5 26 15.5 61t23.5 71l106 305h114l-231 -612q-29 -78 -77.5 -122.5t-126.5 -44.5q-25 0 -43 2.5t-31 5.5v84q10 -2 26 -4t33 -2q46 0 74 26.5t44 69.5l22 58z" />
    <glyph glyph-name="z" unicode="z" horiz-adv-x="475" 
d="M439 0h-404v67l278 390h-261v82h379v-75l-272 -382h280v-82z" />
    <glyph glyph-name="braceleft" unicode="{" horiz-adv-x="384" 
d="M350 -158q-103 1 -153 37.5t-50 114.5v149q0 50 -31.5 71t-91.5 21v86q60 1 91.5 21.5t31.5 69.5v150q0 78 51.5 115t151.5 37v-83q-48 -1 -76 -20.5t-28 -66.5v-144q0 -100 -110 -118v-6q110 -19 110 -118v-147q0 -47 27 -66t77 -20v-83z" />
    <glyph glyph-name="bar" unicode="|" horiz-adv-x="551" 
d="M234 759h83v-996h-83v996z" />
    <glyph glyph-name="braceright" unicode="}" horiz-adv-x="384" 
d="M34 -158v83q48 1 76 20.5t28 66.5v145q0 100 110 118v6q-110 18 -110 118v146q0 47 -27 66t-77 20v83q104 -1 153.5 -37.5t49.5 -114.5v-149q0 -49 31.5 -70.5t91.5 -21.5v-86q-60 0 -91.5 -20.5t-31.5 -70.5v-150q0 -78 -51.5 -115t-151.5 -37z" />
    <glyph glyph-name="asciitilde" unicode="~" horiz-adv-x="572" 
d="M269 314q-37 16 -61 21.5t-46 5.5q-28 0 -59 -17t-55 -42v88q48 53 121 53q29 0 58 -6.5t75 -25.5q37 -16 61 -21.5t45 -5.5q29 0 60 17t55 42v-87q-49 -54 -121 -54q-29 0 -58 6t-75 26z" />
    <glyph glyph-name="uni00A0" unicode="&#xa0;" horiz-adv-x="260" 
 />
    <glyph glyph-name="exclamdown" unicode="&#xa1;" horiz-adv-x="274" 
d="M205 474q0 -40 -20.5 -56t-48.5 -16t-48 16t-20 56q0 38 20 55t48 17t48.5 -17t20.5 -55zM98 320h76l25 -501h-126z" />
    <glyph glyph-name="cent" unicode="&#xa2;" horiz-adv-x="572" 
d="M356 724v-79q40 -1 75 -10t61 -21l-32 -86q-28 11 -60 19.5t-61 8.5q-146 0 -146 -193q0 -97 36.5 -142t107.5 -45q44 0 77 9t66 23v-91q-28 -14 -58 -21.5t-67 -9.5v-96h-73v99q-91 13 -144 76.5t-53 196.5q0 92 24.5 150t68.5 89t104 40v83h74z" />
    <glyph glyph-name="sterling" unicode="&#xa3;" horiz-adv-x="572" 
d="M336 723q55 0 100 -11.5t81 -28.5l-35 -83q-32 14 -68 25t-73 11q-49 0 -77 -26t-28 -87v-125h197v-79h-197v-94q0 -59 -22 -87.5t-48 -43.5h374v-94h-506v88q43 13 69.5 43t26.5 93v95h-93v79h93v132q0 95 57.5 144t148.5 49z" />
    <glyph glyph-name="currency" unicode="&#xa4;" horiz-adv-x="572" 
d="M91 353q0 29 8.5 56t23.5 50l-65 66l56 54l64 -63q23 15 50.5 23.5t57.5 8.5q57 0 106 -32l65 63l55 -53l-63 -66q14 -22 23 -50t9 -57q0 -30 -8.5 -57.5t-23.5 -50.5l62 -64l-54 -54l-65 63q-23 -14 -50 -22.5t-56 -8.5q-62 0 -108 32l-64 -63l-55 54l64 64
q-15 23 -23.5 50.5t-8.5 56.5zM168 353q0 -49 34 -83.5t84 -34.5t84.5 34.5t34.5 83.5q0 50 -34.5 85t-84.5 35q-33 0 -60 -16t-42.5 -43.5t-15.5 -60.5z" />
    <glyph glyph-name="yen" unicode="&#xa5;" horiz-adv-x="572" 
d="M285 381l164 333h110l-197 -372h116v-71h-142v-77h142v-71h-142v-123h-102v123h-142v71h142v77h-142v71h113l-194 372h111z" />
    <glyph glyph-name="brokenbar" unicode="&#xa6;" horiz-adv-x="551" 
d="M234 759h83v-386h-83v386zM234 149h83v-386h-83v386z" />
    <glyph glyph-name="section" unicode="&#xa7;" horiz-adv-x="505" 
d="M65 394q0 47 22.5 77.5t52.5 46.5q-34 20 -53.5 47.5t-19.5 67.5q0 61 51.5 96.5t145.5 35.5q54 0 94 -10t79 -26l-31 -75q-34 14 -68 25t-79 11q-54 0 -76.5 -14.5t-22.5 -40.5q0 -27 26.5 -46t96.5 -45q75 -28 118 -65t43 -97q0 -50 -21 -81.5t-50 -49.5q34 -19 52 -45
t18 -64q0 -70 -57.5 -109t-159.5 -39q-55 0 -96 9t-73 25v83q34 -17 81 -30t91 -13q68 0 94 20t26 47q0 18 -9 31.5t-35 28t-77 34.5q-78 29 -120.5 64t-42.5 101zM150 404q0 -34 30 -59t104 -54l17 -6q21 12 39 32.5t18 51.5q0 23 -12.5 42.5t-44 37t-88.5 36.5
q-24 -7 -43.5 -28.5t-19.5 -52.5z" />
    <glyph glyph-name="dieresis" unicode="&#xa8;" horiz-adv-x="588" 
d="M145 682q0 29 15.5 41.5t37.5 12.5t38 -12.5t16 -41.5q0 -27 -16 -40.5t-38 -13.5t-37.5 13.5t-15.5 40.5zM336 682q0 29 15 41.5t38 12.5q21 0 37 -12.5t16 -41.5q0 -27 -16 -40.5t-37 -13.5q-23 0 -38 13.5t-15 40.5z" />
    <glyph glyph-name="copyright" unicode="&#xa9;" horiz-adv-x="832" 
d="M416 -10q-80 0 -147 27t-116.5 76.5t-76.5 116.5t-27 147q0 79 27.5 146t76.5 116.5t116 77t147 27.5q76 0 142.5 -27t117 -76.5t79 -116.5t28.5 -147t-27 -147t-76.5 -116.5t-116.5 -76.5t-147 -27zM416 46q63 0 118.5 23t97.5 64.5t66 98.5t24 125q0 64 -22.5 120.5
t-64 99t-97.5 67t-122 24.5q-89 0 -158.5 -40t-109 -110t-39.5 -161q0 -87 39.5 -157.5t108.5 -112t159 -41.5zM431 132q-100 0 -149.5 61.5t-49.5 163.5q0 65 23.5 116t69 80t110.5 29t123 -30l-29 -63q-50 26 -93 26q-59 0 -91.5 -42.5t-32.5 -115.5q0 -77 28.5 -118
t94.5 -41q23 0 51.5 6.5t53.5 16.5v-65q-24 -10 -49 -17t-60 -7z" />
    <glyph glyph-name="ordfeminine" unicode="&#xaa;" horiz-adv-x="365" 
d="M184 722q133 0 133 -119v-219h-52l-13 46q-20 -23 -49 -37.5t-66 -14.5q-49 0 -78.5 25t-29.5 77t41 78t121 29l54 2v18q0 30 -19.5 43t-49.5 13q-26 0 -51.5 -7.5t-50.5 -19.5l-25 54q28 14 62 23t73 9zM245 540l-48 -2q-55 -2 -74 -17.5t-19 -39.5t13.5 -34.5
t35.5 -10.5q47 0 69.5 23t22.5 60v21z" />
    <glyph glyph-name="guillemotleft" unicode="&#xab;" horiz-adv-x="540" 
d="M40 273l172 207l76 -42l-139 -171l139 -171l-76 -43l-172 207v13zM252 273l174 207l75 -42l-139 -171l139 -171l-75 -43l-174 207v13z" />
    <glyph glyph-name="logicalnot" unicode="&#xac;" horiz-adv-x="572" 
d="M522 393v-267h-81v186h-393v81h474z" />
    <glyph glyph-name="uni00AD" unicode="&#xad;" horiz-adv-x="322" 
d="M37 223v90h248v-90h-248z" />
    <glyph glyph-name="registered" unicode="&#xae;" horiz-adv-x="832" 
d="M416 -10q-80 0 -147 27t-116.5 76.5t-76.5 116.5t-27 147q0 79 27.5 146t76.5 116.5t116 77t147 27.5q76 0 142.5 -27t117 -76.5t79 -116.5t28.5 -147t-27 -147t-76.5 -116.5t-116.5 -76.5t-147 -27zM416 46q63 0 118.5 23t97.5 64.5t66 98.5t24 125q0 64 -22.5 120.5
t-64 99t-97.5 67t-122 24.5q-89 0 -158.5 -40t-109 -110t-39.5 -161q0 -87 39.5 -157.5t108.5 -112t159 -41.5zM278 138v438h129q82 0 120 -33t38 -97q0 -47 -24 -74.5t-54 -39.5l116 -194h-87l-99 172h-62v-172h-77zM355 373h50q39 0 60.5 19.5t21.5 51.5q0 35 -19.5 51
t-63.5 16h-49v-138z" />
    <glyph glyph-name="overscore" unicode="&#xaf;" horiz-adv-x="500" 
d="M503 760h-506v75h506v-75z" />
    <glyph glyph-name="degree" unicode="&#xb0;" horiz-adv-x="428" 
d="M214 408q-74 0 -119 44t-45 114t45 114t119 44q73 0 118 -44t45 -114t-45 -114t-118 -44zM215 477q43 0 65.5 24.5t22.5 64.5q0 41 -23.5 65.5t-64.5 24.5q-44 0 -67 -24.5t-23 -65.5q0 -40 23 -64.5t67 -24.5z" />
    <glyph glyph-name="plusminus" unicode="&#xb1;" horiz-adv-x="572" 
d="M326 404h196v-81h-196v-201h-82v201h-196v81h196v202h82v-202zM48 0v82h475v-82h-475z" />
    <glyph glyph-name="uni00B2" unicode="&#xb2;" horiz-adv-x="359" 
d="M317 416h-292v62l113 111q38 36 57.5 59t27 41t7.5 39q0 28 -17 42.5t-43 14.5q-27 0 -50.5 -11.5t-49.5 -31.5l-43 54q30 26 66 41.5t82 15.5q64 0 101.5 -31.5t37.5 -87.5q0 -48 -28.5 -86.5t-84.5 -91.5l-72 -67h188v-73z" />
    <glyph glyph-name="uni00B3" unicode="&#xb3;" horiz-adv-x="359" 
d="M171 853q67 0 104.5 -30.5t37.5 -80.5q0 -38 -21 -64t-55 -36v-4q42 -8 65.5 -35t23.5 -65q0 -58 -42.5 -94t-131.5 -36q-37 0 -69 7t-62 23v72q68 -37 132 -37q91 0 91 69q0 64 -102 64h-56v61h53q51 0 71.5 18.5t20.5 46.5t-17.5 42t-46.5 14t-53.5 -10t-51.5 -28
l-40 53q31 23 66 36.5t83 13.5z" />
    <glyph glyph-name="acute" unicode="&#xb4;" horiz-adv-x="305" 
d="M265 766v-10q-15 -18 -42.5 -46.5t-58 -57t-54.5 -46.5h-70v12q15 18 34 44.5t36.5 54t30.5 49.5h124z" />
    <glyph glyph-name="uni00B5" unicode="&#xb5;" horiz-adv-x="634" 
d="M551 539v-539h-83l-16 72h-6q-24 -40 -61 -61t-89 -21q-36 0 -63 12t-45 33h-4q2 -17 3.5 -49.5t1.5 -69.5v-156h-106v779h106v-338q0 -124 111 -124q82 0 113.5 48.5t31.5 140.5v273h106z" />
    <glyph glyph-name="paragraph" unicode="&#xb6;" horiz-adv-x="655" 
d="M555 -127h-64v819h-96v-819h-64v400q-15 -5 -34 -7t-37 -2q-62 0 -108 23t-71.5 77t-25.5 145q0 95 27.5 150t77.5 78t115 23h280v-887z" />
    <glyph glyph-name="periodcentered" unicode="&#xb7;" horiz-adv-x="273" 
d="M68 353q0 39 20 55t48 16t48.5 -16t20.5 -55t-20.5 -56t-48.5 -17t-48 17t-20 56z" />
    <glyph glyph-name="cedilla" unicode="&#xb8;" horiz-adv-x="219" 
d="M210 -134q0 -50 -36 -78t-113 -28q-17 0 -31.5 2t-24.5 4v63q11 -2 27 -4t31 -2q29 0 45.5 8.5t16.5 31.5q0 24 -23.5 36.5t-64.5 17.5l42 83h68l-22 -46q35 -9 60 -29.5t25 -58.5z" />
    <glyph glyph-name="uni00B9" unicode="&#xb9;" horiz-adv-x="359" 
d="M253 844v-428h-84v259q0 24 1.5 49t2.5 43q-9 -8 -21 -19t-23 -19l-49 -37l-41 53l135 99h79z" />
    <glyph glyph-name="ordmasculine" unicode="&#xba;" horiz-adv-x="380" 
d="M349 551q0 -83 -43.5 -128t-116.5 -45q-69 0 -113.5 44.5t-44.5 128.5q0 83 43 127t117 44q71 0 114.5 -44t43.5 -127zM104 551q0 -56 20 -84t66 -28q44 0 64.5 28t20.5 84t-20.5 83t-64.5 27q-45 0 -65.5 -27t-20.5 -83z" />
    <glyph glyph-name="guillemotright" unicode="&#xbb;" horiz-adv-x="540" 
d="M500 260l-173 -207l-75 43l139 171l-139 171l75 42l173 -207v-13zM287 260l-172 -207l-76 43l139 171l-139 171l76 42l172 -207v-13z" />
    <glyph glyph-name="onequarter" unicode="&#xbc;" horiz-adv-x="770" 
d="M135 0l424 714h87l-424 -714h-87zM160 286v259q0 24 1 49t3 43q-8 -8 -20.5 -19t-23.5 -19l-49 -37l-41 53l135 99h79v-428h-84zM613 0v90h-193v58l195 283h85v-275h61v-66h-61v-90h-87zM496 156h117v89q0 21 0.5 47.5t2.5 50.5q-5 -12 -19.5 -36.5t-25.5 -40.5z" />
    <glyph glyph-name="onehalf" unicode="&#xbd;" horiz-adv-x="801" 
d="M114 0l424 714h87l-424 -714h-87zM152 286v259q0 24 1 49t3 43q-9 -8 -21 -19t-23 -19l-50 -37l-40 53l135 99h79v-428h-84zM468 0v62l113 111q37 36 57 59t27 41t7 39q0 28 -16.5 42.5t-43.5 14.5q-26 0 -50 -11.5t-50 -31.5l-42 54q30 26 66 41.5t82 15.5
q64 0 101.5 -31.5t37.5 -87.5q0 -48 -28.5 -86.5t-84.5 -91.5l-72 -67h188v-73h-292z" />
    <glyph glyph-name="threequarters" unicode="&#xbe;" horiz-adv-x="800" 
d="M155 278q-37 0 -69 7t-62 23v72q68 -37 132 -37q91 0 91 69q0 64 -102 64h-56v61h53q51 0 71.5 18.5t20.5 46.5t-18 42t-46 14t-53 -10t-52 -28l-40 53q31 23 66 36.5t83 13.5q68 0 105 -30.5t37 -80.5q0 -38 -21 -64t-55 -36v-4q42 -8 65.5 -35t23.5 -65
q0 -58 -42.5 -94t-131.5 -36zM176 0l424 714h88l-424 -714h-88zM643 0v90h-193v58l194 283h86v-275h61v-66h-61v-90h-87zM526 156h117v89q0 21 0.5 47.5t2.5 50.5q-5 -12 -19.5 -36.5t-25.5 -40.5z" />
    <glyph glyph-name="questiondown" unicode="&#xbf;" horiz-adv-x="447" 
d="M307 320v-29q0 -55 -18.5 -90.5t-67.5 -75.5q-36 -29 -56.5 -49.5t-29.5 -41t-9 -47.5q0 -43 29 -66t82 -23q47 0 86 12.5t76 30.5l38 -80q-43 -23 -94 -38t-113 -15q-98 0 -151.5 48t-53.5 128q0 44 14 75t40.5 57t62.5 56q32 26 49 45t23 38t6 45v20h87zM328 473
q0 -39 -19.5 -55t-49.5 -16q-28 0 -48 16t-20 55t20 56t48 17q30 0 49.5 -17t19.5 -56z" />
    <glyph glyph-name="Agrave" unicode="&#xc0;" horiz-adv-x="654" 
d="M540 0l-76 206h-276l-76 -206h-112l271 717h112l270 -717h-113zM434 300l-72 201q-4 11 -11 33t-14 46t-11 39q-8 -31 -18 -66t-16 -52l-72 -201h214zM300 941q12 -22 30 -49.5t37.5 -54t34.5 -44.5v-12h-71q-24 18 -54.5 46.5t-58 57t-41.5 46.5v10h123z" />
    <glyph glyph-name="Aacute" unicode="&#xc1;" horiz-adv-x="654" 
d="M540 0l-76 206h-276l-76 -206h-112l271 717h112l270 -717h-113zM434 300l-72 201q-4 11 -11 33t-14 46t-11 39q-8 -31 -18 -66t-16 -52l-72 -201h214zM482 941v-10q-15 -18 -42.5 -46.5t-58 -57t-54.5 -46.5h-70v12q15 18 34 44.5t36.5 54t30.5 49.5h124z" />
    <glyph glyph-name="Acircumflex" unicode="&#xc2;" horiz-adv-x="654" 
d="M540 0l-76 206h-276l-76 -206h-112l271 717h112l270 -717h-113zM434 300l-72 201q-4 11 -11 33t-14 46t-11 39q-8 -31 -18 -66t-16 -52l-72 -201h214zM384 941q13 -22 35.5 -49.5t46.5 -54t43 -44.5v-12h-73q-26 16 -55 39t-55 50q-27 -27 -54.5 -50t-53.5 -39h-72v12
q18 19 42 45t46 53.5t36 49.5h114z" />
    <glyph glyph-name="Atilde" unicode="&#xc3;" horiz-adv-x="654" 
d="M540 0l-76 206h-276l-76 -206h-112l271 717h112l270 -717h-113zM434 300l-72 201q-4 11 -11 33t-14 46t-11 39q-8 -31 -18 -66t-16 -52l-72 -201h214zM136 781q6 64 37 99t80 35q29 0 55 -14t50 -27.5t46 -13.5q39 0 53 56h57q-6 -64 -36.5 -99t-79.5 -35q-28 0 -54 13.5
t-50 27.5t-47 14q-41 0 -54 -56h-57z" />
    <glyph glyph-name="Adieresis" unicode="&#xc4;" horiz-adv-x="654" 
d="M540 0l-76 206h-276l-76 -206h-112l271 717h112l270 -717h-113zM434 300l-72 201q-4 11 -11 33t-14 46t-11 39q-8 -31 -18 -66t-16 -52l-72 -201h214zM177 857q0 29 15.5 41.5t37.5 12.5t38 -12.5t16 -41.5q0 -27 -16 -40.5t-38 -13.5t-37.5 13.5t-15.5 40.5zM368 857
q0 29 15 41.5t38 12.5q21 0 37 -12.5t16 -41.5q0 -27 -16 -40.5t-37 -13.5q-23 0 -38 13.5t-15 40.5z" />
    <glyph glyph-name="Aring" unicode="&#xc5;" horiz-adv-x="654" 
d="M540 0l-76 206h-276l-76 -206h-112l271 717h112l270 -717h-113zM434 300l-72 201q-4 11 -11 33t-14 46t-11 39q-8 -31 -18 -66t-16 -52l-72 -201h214zM325 662q-51 0 -82 28.5t-31 80.5q0 50 31 79t82 29q48 0 81 -28.5t33 -78.5q0 -52 -32.5 -81t-81.5 -29zM325 717
q23 0 38 14.5t15 39.5t-15 39t-38 14t-38.5 -14t-15.5 -39q0 -54 54 -54z" />
    <glyph glyph-name="AE" unicode="&#xc6;" horiz-adv-x="902" 
d="M842 0h-388v206h-247l-97 -206h-111l334 714h509v-92h-280v-204h262v-91h-262v-234h280v-93zM248 300h206v320h-59z" />
    <glyph glyph-name="Ccedilla" unicode="&#xc7;" horiz-adv-x="633" 
d="M400 631q-106 0 -166.5 -73.5t-60.5 -201.5q0 -127 56 -200t170 -73q46 0 88.5 8.5t86.5 22.5v-93q-42 -16 -86 -23.5t-102 -7.5q-110 0 -182.5 45.5t-108 128t-35.5 193.5q0 108 39.5 190.5t115.5 129.5t186 47q54 0 105.5 -11.5t94.5 -32.5l-40 -90q-35 16 -75 28.5
t-86 12.5zM477 -134q0 -50 -36 -78t-113 -28q-17 0 -31.5 2t-24.5 4v63q11 -2 27 -4t31 -2q29 0 45.5 8.5t16.5 31.5q0 24 -23.5 36.5t-64.5 17.5l42 83h68l-22 -46q35 -9 60 -29.5t25 -58.5z" />
    <glyph glyph-name="Egrave" unicode="&#xc8;" horiz-adv-x="557" 
d="M497 0h-402v714h402v-92h-294v-204h276v-91h-276v-234h294v-93zM278 941q12 -22 30 -49.5t37.5 -54t34.5 -44.5v-12h-71q-24 18 -54.5 46.5t-58 57t-41.5 46.5v10h123z" />
    <glyph glyph-name="Eacute" unicode="&#xc9;" horiz-adv-x="557" 
d="M497 0h-402v714h402v-92h-294v-204h276v-91h-276v-234h294v-93zM460 941v-10q-15 -18 -42.5 -46.5t-58 -57t-54.5 -46.5h-70v12q15 18 34 44.5t36.5 54t30.5 49.5h124z" />
    <glyph glyph-name="Ecircumflex" unicode="&#xca;" horiz-adv-x="557" 
d="M497 0h-402v714h402v-92h-294v-204h276v-91h-276v-234h294v-93zM362 941q13 -22 35.5 -49.5t46.5 -54t43 -44.5v-12h-73q-26 16 -55 39t-55 50q-27 -27 -54.5 -50t-53.5 -39h-72v12q18 19 42 45t46 53.5t36 49.5h114z" />
    <glyph glyph-name="Edieresis" unicode="&#xcb;" horiz-adv-x="557" 
d="M497 0h-402v714h402v-92h-294v-204h276v-91h-276v-234h294v-93zM155 857q0 29 15.5 41.5t37.5 12.5t38 -12.5t16 -41.5q0 -27 -16 -40.5t-38 -13.5t-37.5 13.5t-15.5 40.5zM346 857q0 29 15 41.5t38 12.5q21 0 37 -12.5t16 -41.5q0 -27 -16 -40.5t-37 -13.5
q-23 0 -38 13.5t-15 40.5z" />
    <glyph glyph-name="Igrave" unicode="&#xcc;" horiz-adv-x="354" 
d="M315 0h-277v62l85 25v539l-85 26v62h277v-62l-84 -26v-539l84 -25v-62zM152 941q12 -22 30 -49.5t37.5 -54t34.5 -44.5v-12h-71q-24 18 -54.5 46.5t-58 57t-41.5 46.5v10h123z" />
    <glyph glyph-name="Iacute" unicode="&#xcd;" horiz-adv-x="354" 
d="M315 0h-277v62l85 25v539l-85 26v62h277v-62l-84 -26v-539l84 -25v-62zM334 941v-10q-15 -18 -42.5 -46.5t-58 -57t-54.5 -46.5h-70v12q15 18 34 44.5t36.5 54t30.5 49.5h124z" />
    <glyph glyph-name="Icircumflex" unicode="&#xce;" horiz-adv-x="354" 
d="M315 0h-277v62l85 25v539l-85 26v62h277v-62l-84 -26v-539l84 -25v-62zM235 941q13 -22 35.5 -49.5t46.5 -54t43 -44.5v-12h-73q-26 16 -55 39t-55 50q-27 -27 -54.5 -50t-53.5 -39h-72v12q18 19 42 45t46 53.5t36 49.5h114z" />
    <glyph glyph-name="Idieresis" unicode="&#xcf;" horiz-adv-x="354" 
d="M315 0h-277v62l85 25v539l-85 26v62h277v-62l-84 -26v-539l84 -25v-62zM28 857q0 29 15.5 41.5t37.5 12.5t38 -12.5t16 -41.5q0 -27 -16 -40.5t-38 -13.5t-37.5 13.5t-15.5 40.5zM219 857q0 29 15 41.5t38 12.5q21 0 37 -12.5t16 -41.5q0 -27 -16 -40.5t-37 -13.5
q-23 0 -38 13.5t-15 40.5z" />
    <glyph glyph-name="Eth" unicode="&#xd0;" horiz-adv-x="733" 
d="M316 714q108 0 188.5 -40t124.5 -118t44 -192q0 -181 -100 -272.5t-279 -91.5h-194v307h-72v92h72v315h216zM309 623h-101v-224h160v-92h-160v-216h82q270 0 270 270q0 135 -66 198.5t-185 63.5z" />
    <glyph glyph-name="Ntilde" unicode="&#xd1;" horiz-adv-x="776" 
d="M681 0h-131l-361 577h-4q2 -40 4.5 -91.5t3.5 -105.5v-380h-98v714h130l360 -574h3q-1 21 -2.5 53t-2.5 68.5t-2 68.5v384h100v-714zM198 781q6 64 37 99t80 35q29 0 55 -14t50 -27.5t46 -13.5q39 0 53 56h57q-6 -64 -36.5 -99t-79.5 -35q-28 0 -54 13.5t-50 27.5t-47 14
q-41 0 -54 -56h-57z" />
    <glyph glyph-name="Ograve" unicode="&#xd2;" horiz-adv-x="785" 
d="M725 358q0 -111 -37 -193.5t-111 -128.5t-184 -46q-113 0 -187 46t-110 129t-36 194q0 110 36 192.5t110 128t188 45.5q110 0 183.5 -45.5t110.5 -128t37 -193.5zM174 358q0 -128 53 -202t166 -74q114 0 166 74t52 202t-52 201t-165 73q-114 0 -167 -73t-53 -201z
M367 941q12 -22 30 -49.5t37.5 -54t34.5 -44.5v-12h-71q-24 18 -54.5 46.5t-58 57t-41.5 46.5v10h123z" />
    <glyph glyph-name="Oacute" unicode="&#xd3;" horiz-adv-x="785" 
d="M725 358q0 -111 -37 -193.5t-111 -128.5t-184 -46q-113 0 -187 46t-110 129t-36 194q0 110 36 192.5t110 128t188 45.5q110 0 183.5 -45.5t110.5 -128t37 -193.5zM174 358q0 -128 53 -202t166 -74q114 0 166 74t52 202t-52 201t-165 73q-114 0 -167 -73t-53 -201z
M549 941v-10q-15 -18 -42.5 -46.5t-58 -57t-54.5 -46.5h-70v12q15 18 34 44.5t36.5 54t30.5 49.5h124z" />
    <glyph glyph-name="Ocircumflex" unicode="&#xd4;" horiz-adv-x="785" 
d="M725 358q0 -111 -37 -193.5t-111 -128.5t-184 -46q-113 0 -187 46t-110 129t-36 194q0 110 36 192.5t110 128t188 45.5q110 0 183.5 -45.5t110.5 -128t37 -193.5zM174 358q0 -128 53 -202t166 -74q114 0 166 74t52 202t-52 201t-165 73q-114 0 -167 -73t-53 -201z
M451 941q13 -22 35.5 -49.5t46.5 -54t43 -44.5v-12h-73q-26 16 -55 39t-55 50q-27 -27 -54.5 -50t-53.5 -39h-72v12q18 19 42 45t46 53.5t36 49.5h114z" />
    <glyph glyph-name="Otilde" unicode="&#xd5;" horiz-adv-x="785" 
d="M725 358q0 -111 -37 -193.5t-111 -128.5t-184 -46q-113 0 -187 46t-110 129t-36 194q0 110 36 192.5t110 128t188 45.5q110 0 183.5 -45.5t110.5 -128t37 -193.5zM174 358q0 -128 53 -202t166 -74q114 0 166 74t52 202t-52 201t-165 73q-114 0 -167 -73t-53 -201z
M203 781q6 64 37 99t80 35q29 0 55 -14t50 -27.5t46 -13.5q39 0 53 56h57q-6 -64 -36.5 -99t-79.5 -35q-28 0 -54 13.5t-50 27.5t-47 14q-41 0 -54 -56h-57z" />
    <glyph glyph-name="Odieresis" unicode="&#xd6;" horiz-adv-x="785" 
d="M725 358q0 -111 -37 -193.5t-111 -128.5t-184 -46q-113 0 -187 46t-110 129t-36 194q0 110 36 192.5t110 128t188 45.5q110 0 183.5 -45.5t110.5 -128t37 -193.5zM174 358q0 -128 53 -202t166 -74q114 0 166 74t52 202t-52 201t-165 73q-114 0 -167 -73t-53 -201z
M244 857q0 29 15.5 41.5t37.5 12.5t38 -12.5t16 -41.5q0 -27 -16 -40.5t-38 -13.5t-37.5 13.5t-15.5 40.5zM435 857q0 29 15 41.5t38 12.5q21 0 37 -12.5t16 -41.5q0 -27 -16 -40.5t-37 -13.5q-23 0 -38 13.5t-15 40.5z" />
    <glyph glyph-name="multiply" unicode="&#xd7;" horiz-adv-x="572" 
d="M449 574l58 -57l-164 -164l162 -164l-56 -57l-165 162l-161 -162l-58 58l162 163l-163 163l58 58l163 -163z" />
    <glyph glyph-name="Oslash" unicode="&#xd8;" horiz-adv-x="785" 
d="M725 358q0 -111 -37 -193.5t-111 -128.5t-184 -46q-107 0 -179 43l-47 -68l-66 44l50 72q-46 49 -68.5 119.5t-22.5 158.5q0 110 36 192.5t110 128t188 45.5q51 0 95 -11.5t80 -30.5l45 65l66 -44l-49 -69q47 -48 70.5 -118.5t23.5 -158.5zM174 358q0 -57 10 -103.5
t31 -80.5l298 427q-48 31 -119 31q-114 0 -167 -73t-53 -201zM611 358q0 117 -43 185l-297 -428q23 -16 54 -24.5t68 -8.5q114 0 166 74t52 202z" />
    <glyph glyph-name="Ugrave" unicode="&#xd9;" horiz-adv-x="738" 
d="M649 714v-462q0 -74 -30.5 -133.5t-93.5 -94t-159 -34.5q-136 0 -206.5 72.5t-70.5 191.5v460h108v-455q0 -177 174 -177q90 0 130.5 48t40.5 130v454h107zM344 941q12 -22 30 -49.5t37.5 -54t34.5 -44.5v-12h-71q-24 18 -54.5 46.5t-58 57t-41.5 46.5v10h123z" />
    <glyph glyph-name="Uacute" unicode="&#xda;" horiz-adv-x="738" 
d="M649 714v-462q0 -74 -30.5 -133.5t-93.5 -94t-159 -34.5q-136 0 -206.5 72.5t-70.5 191.5v460h108v-455q0 -177 174 -177q90 0 130.5 48t40.5 130v454h107zM526 941v-10q-15 -18 -42.5 -46.5t-58 -57t-54.5 -46.5h-70v12q15 18 34 44.5t36.5 54t30.5 49.5h124z" />
    <glyph glyph-name="Ucircumflex" unicode="&#xdb;" horiz-adv-x="738" 
d="M649 714v-462q0 -74 -30.5 -133.5t-93.5 -94t-159 -34.5q-136 0 -206.5 72.5t-70.5 191.5v460h108v-455q0 -177 174 -177q90 0 130.5 48t40.5 130v454h107zM428 941q13 -22 35.5 -49.5t46.5 -54t43 -44.5v-12h-73q-26 16 -55 39t-55 50q-27 -27 -54.5 -50t-53.5 -39h-72
v12q18 19 42 45t46 53.5t36 49.5h114z" />
    <glyph glyph-name="Udieresis" unicode="&#xdc;" horiz-adv-x="738" 
d="M649 714v-462q0 -74 -30.5 -133.5t-93.5 -94t-159 -34.5q-136 0 -206.5 72.5t-70.5 191.5v460h108v-455q0 -177 174 -177q90 0 130.5 48t40.5 130v454h107zM220 857q0 29 15.5 41.5t37.5 12.5t38 -12.5t16 -41.5q0 -27 -16 -40.5t-38 -13.5t-37.5 13.5t-15.5 40.5z
M411 857q0 29 15 41.5t38 12.5q21 0 37 -12.5t16 -41.5q0 -27 -16 -40.5t-37 -13.5q-23 0 -38 13.5t-15 40.5z" />
    <glyph glyph-name="Yacute" unicode="&#xdd;" horiz-adv-x="583" 
d="M292 380l175 334h116l-238 -437v-277h-107v273l-238 441h117zM448 941v-10q-15 -18 -42.5 -46.5t-58 -57t-54.5 -46.5h-70v12q15 18 34 44.5t36.5 54t30.5 49.5h124z" />
    <glyph glyph-name="Thorn" unicode="&#xde;" horiz-adv-x="612" 
d="M563 380q0 -60 -26 -112t-87.5 -84.5t-167.5 -32.5h-79v-151h-108v714h108v-120h93q141 0 204 -57t63 -157zM203 241h65q95 0 139.5 31.5t44.5 104.5q0 64 -40 95t-128 31h-81v-262z" />
    <glyph glyph-name="germandbls" unicode="&#xdf;" horiz-adv-x="655" 
d="M548 614q0 -35 -14 -61t-35 -45.5t-42 -35t-35 -30t-14 -31.5q0 -13 8 -24t28 -26t57 -39q53 -34 82.5 -71t29.5 -96q0 -85 -53.5 -125t-144.5 -40q-92 0 -146 33v91q25 -16 64 -29t77 -13q50 0 73.5 20.5t23.5 57.5q0 33 -19.5 55.5t-74.5 57.5q-62 39 -85.5 68.5
t-23.5 69.5q0 31 13.5 53t34 38.5t41 32t34 34t13.5 44.5q0 38 -34.5 57t-87.5 19q-35 0 -64.5 -9.5t-47 -32.5t-17.5 -63v-574h-106v576q0 68 31 109.5t84 60.5t120 19q68 0 119.5 -17t81 -50.5t29.5 -83.5z" />
    <glyph glyph-name="agrave" unicode="&#xe0;" horiz-adv-x="574" 
d="M292 549q101 0 151.5 -44.5t50.5 -139.5v-365h-75l-21 75h-4q-35 -44 -73.5 -64.5t-106.5 -20.5q-73 0 -121 39.5t-48 123.5q0 83 62.5 125.5t190.5 46.5l92 3v30q0 59 -27 83.5t-76 24.5q-41 0 -79 -12t-73 -29l-34 77q38 20 87.5 33.5t103.5 13.5zM389 259l-72 -2
q-92 -4 -127.5 -31t-35.5 -74q0 -42 25 -61t65 -19q62 0 103.5 35t41.5 105v47zM261 766q12 -22 30 -49.5t37.5 -54t34.5 -44.5v-12h-71q-24 18 -54.5 46.5t-58 57t-41.5 46.5v10h123z" />
    <glyph glyph-name="aacute" unicode="&#xe1;" horiz-adv-x="574" 
d="M292 549q101 0 151.5 -44.5t50.5 -139.5v-365h-75l-21 75h-4q-35 -44 -73.5 -64.5t-106.5 -20.5q-73 0 -121 39.5t-48 123.5q0 83 62.5 125.5t190.5 46.5l92 3v30q0 59 -27 83.5t-76 24.5q-41 0 -79 -12t-73 -29l-34 77q38 20 87.5 33.5t103.5 13.5zM389 259l-72 -2
q-92 -4 -127.5 -31t-35.5 -74q0 -42 25 -61t65 -19q62 0 103.5 35t41.5 105v47zM443 766v-10q-15 -18 -42.5 -46.5t-58 -57t-54.5 -46.5h-70v12q15 18 34 44.5t36.5 54t30.5 49.5h124z" />
    <glyph glyph-name="acircumflex" unicode="&#xe2;" horiz-adv-x="574" 
d="M292 549q101 0 151.5 -44.5t50.5 -139.5v-365h-75l-21 75h-4q-35 -44 -73.5 -64.5t-106.5 -20.5q-73 0 -121 39.5t-48 123.5q0 83 62.5 125.5t190.5 46.5l92 3v30q0 59 -27 83.5t-76 24.5q-41 0 -79 -12t-73 -29l-34 77q38 20 87.5 33.5t103.5 13.5zM389 259l-72 -2
q-92 -4 -127.5 -31t-35.5 -74q0 -42 25 -61t65 -19q62 0 103.5 35t41.5 105v47zM345 766q13 -22 35.5 -49.5t46.5 -54t43 -44.5v-12h-73q-26 16 -55 39t-55 50q-27 -27 -54.5 -50t-53.5 -39h-72v12q18 19 42 45t46 53.5t36 49.5h114z" />
    <glyph glyph-name="atilde" unicode="&#xe3;" horiz-adv-x="574" 
d="M292 549q101 0 151.5 -44.5t50.5 -139.5v-365h-75l-21 75h-4q-35 -44 -73.5 -64.5t-106.5 -20.5q-73 0 -121 39.5t-48 123.5q0 83 62.5 125.5t190.5 46.5l92 3v30q0 59 -27 83.5t-76 24.5q-41 0 -79 -12t-73 -29l-34 77q38 20 87.5 33.5t103.5 13.5zM389 259l-72 -2
q-92 -4 -127.5 -31t-35.5 -74q0 -42 25 -61t65 -19q62 0 103.5 35t41.5 105v47zM98 606q6 64 37 99t80 35q29 0 55 -14t50 -27.5t46 -13.5q39 0 53 56h57q-6 -64 -36.5 -99t-79.5 -35q-28 0 -54 13.5t-50 27.5t-47 14q-41 0 -54 -56h-57z" />
    <glyph glyph-name="adieresis" unicode="&#xe4;" horiz-adv-x="574" 
d="M292 549q101 0 151.5 -44.5t50.5 -139.5v-365h-75l-21 75h-4q-35 -44 -73.5 -64.5t-106.5 -20.5q-73 0 -121 39.5t-48 123.5q0 83 62.5 125.5t190.5 46.5l92 3v30q0 59 -27 83.5t-76 24.5q-41 0 -79 -12t-73 -29l-34 77q38 20 87.5 33.5t103.5 13.5zM389 259l-72 -2
q-92 -4 -127.5 -31t-35.5 -74q0 -42 25 -61t65 -19q62 0 103.5 35t41.5 105v47zM138 682q0 29 15.5 41.5t37.5 12.5t38 -12.5t16 -41.5q0 -27 -16 -40.5t-38 -13.5t-37.5 13.5t-15.5 40.5zM329 682q0 29 15 41.5t38 12.5q21 0 37 -12.5t16 -41.5q0 -27 -16 -40.5t-37 -13.5
q-23 0 -38 13.5t-15 40.5z" />
    <glyph glyph-name="aring" unicode="&#xe5;" horiz-adv-x="574" 
d="M292 549q101 0 151.5 -44.5t50.5 -139.5v-365h-75l-21 75h-4q-35 -44 -73.5 -64.5t-106.5 -20.5q-73 0 -121 39.5t-48 123.5q0 83 62.5 125.5t190.5 46.5l92 3v30q0 59 -27 83.5t-76 24.5q-41 0 -79 -12t-73 -29l-34 77q38 20 87.5 33.5t103.5 13.5zM389 259l-72 -2
q-92 -4 -127.5 -31t-35.5 -74q0 -42 25 -61t65 -19q62 0 103.5 35t41.5 105v47zM289 606q-51 0 -82 28.5t-31 80.5q0 50 31 79t82 29q48 0 81 -28.5t33 -78.5q0 -52 -32.5 -81t-81.5 -29zM289 661q23 0 38 14.5t15 39.5t-15 39t-38 14t-38.5 -14t-15.5 -39q0 -54 54 -54z
" />
    <glyph glyph-name="ae" unicode="&#xe6;" horiz-adv-x="880" 
d="M614 549q66 0 115 -30t75.5 -84.5t26.5 -127.5v-60h-346q2 -86 40.5 -128.5t108.5 -42.5q50 0 90 9.5t81 28.5v-88q-41 -19 -80.5 -27.5t-94.5 -8.5q-68 0 -121 27.5t-85 81.5q-38 -52 -83 -80.5t-125 -28.5q-48 0 -87 17.5t-61.5 53.5t-22.5 92q0 165 241 172l91 3v36
q0 56 -28 79t-75 23q-39 0 -77 -12t-72 -28l-33 76q38 20 88 33.5t102 13.5q120 0 165 -80q28 38 69.5 59t97.5 21zM613 467q-55 0 -88 -36t-38 -106h237q0 63 -27.5 102.5t-83.5 39.5zM376 259l-69 -2q-86 -4 -119.5 -31t-33.5 -74q0 -42 23.5 -61t62.5 -19q58 0 97 35
t39 105v47z" />
    <glyph glyph-name="ccedilla" unicode="&#xe7;" horiz-adv-x="490" 
d="M300 -10q-112 0 -180 66.5t-68 209.5q0 100 33 162t91 91.5t132 29.5q45 0 84.5 -9t65.5 -22l-32 -86q-28 10 -59 18.5t-60 8.5q-146 0 -146 -192q0 -92 36 -140t106 -48q44 0 79 10t64 26v-92q-29 -17 -63 -25t-83 -8zM390 -134q0 -50 -36 -78t-113 -28q-17 0 -31.5 2
t-24.5 4v63q11 -2 27 -4t31 -2q29 0 45.5 8.5t16.5 31.5q0 24 -23.5 36.5t-64.5 17.5l42 83h68l-22 -46q35 -9 60 -29.5t25 -58.5z" />
    <glyph glyph-name="egrave" unicode="&#xe8;" horiz-adv-x="572" 
d="M295 549q106 0 167 -65.5t61 -178.5v-58h-362q2 -83 43.5 -127t116.5 -44q52 0 92.5 9.5t83.5 28.5v-88q-41 -19 -82 -27.5t-98 -8.5q-78 0 -138 31t-93.5 92t-33.5 152t30.5 154t85 96.5t127.5 33.5zM295 467q-57 0 -91.5 -37t-40.5 -105h254q-1 63 -30.5 102.5
t-91.5 39.5zM263 766q12 -22 30 -49.5t37.5 -54t34.5 -44.5v-12h-71q-24 18 -54.5 46.5t-58 57t-41.5 46.5v10h123z" />
    <glyph glyph-name="eacute" unicode="&#xe9;" horiz-adv-x="572" 
d="M295 549q106 0 167 -65.5t61 -178.5v-58h-362q2 -83 43.5 -127t116.5 -44q52 0 92.5 9.5t83.5 28.5v-88q-41 -19 -82 -27.5t-98 -8.5q-78 0 -138 31t-93.5 92t-33.5 152t30.5 154t85 96.5t127.5 33.5zM295 467q-57 0 -91.5 -37t-40.5 -105h254q-1 63 -30.5 102.5
t-91.5 39.5zM444 766v-10q-15 -18 -42.5 -46.5t-58 -57t-54.5 -46.5h-70v12q15 18 34 44.5t36.5 54t30.5 49.5h124z" />
    <glyph glyph-name="ecircumflex" unicode="&#xea;" horiz-adv-x="572" 
d="M295 549q106 0 167 -65.5t61 -178.5v-58h-362q2 -83 43.5 -127t116.5 -44q52 0 92.5 9.5t83.5 28.5v-88q-41 -19 -82 -27.5t-98 -8.5q-78 0 -138 31t-93.5 92t-33.5 152t30.5 154t85 96.5t127.5 33.5zM295 467q-57 0 -91.5 -37t-40.5 -105h254q-1 63 -30.5 102.5
t-91.5 39.5zM346 766q13 -22 35.5 -49.5t46.5 -54t43 -44.5v-12h-73q-26 16 -55 39t-55 50q-27 -27 -54.5 -50t-53.5 -39h-72v12q18 19 42 45t46 53.5t36 49.5h114z" />
    <glyph glyph-name="edieresis" unicode="&#xeb;" horiz-adv-x="572" 
d="M295 549q106 0 167 -65.5t61 -178.5v-58h-362q2 -83 43.5 -127t116.5 -44q52 0 92.5 9.5t83.5 28.5v-88q-41 -19 -82 -27.5t-98 -8.5q-78 0 -138 31t-93.5 92t-33.5 152t30.5 154t85 96.5t127.5 33.5zM295 467q-57 0 -91.5 -37t-40.5 -105h254q-1 63 -30.5 102.5
t-91.5 39.5zM139 682q0 29 15.5 41.5t37.5 12.5t38 -12.5t16 -41.5q0 -27 -16 -40.5t-38 -13.5t-37.5 13.5t-15.5 40.5zM330 682q0 29 15 41.5t38 12.5q21 0 37 -12.5t16 -41.5q0 -27 -16 -40.5t-37 -13.5q-23 0 -38 13.5t-15 40.5z" />
    <glyph glyph-name="igrave" unicode="&#xec;" horiz-adv-x="272" 
d="M189 0h-106v539h106v-539zM110 766q12 -22 30 -49.5t37.5 -54t34.5 -44.5v-12h-71q-24 18 -54.5 46.5t-58 57t-41.5 46.5v10h123z" />
    <glyph glyph-name="iacute" unicode="&#xed;" horiz-adv-x="272" 
d="M189 0h-106v539h106v-539zM292 766v-10q-15 -18 -42.5 -46.5t-58 -57t-54.5 -46.5h-70v12q15 18 34 44.5t36.5 54t30.5 49.5h124z" />
    <glyph glyph-name="icircumflex" unicode="&#xee;" horiz-adv-x="272" 
d="M189 0h-106v539h106v-539zM194 766q13 -22 35.5 -49.5t46.5 -54t43 -44.5v-12h-73q-26 16 -55 39t-55 50q-27 -27 -54.5 -50t-53.5 -39h-72v12q18 19 42 45t46 53.5t36 49.5h114z" />
    <glyph glyph-name="idieresis" unicode="&#xef;" horiz-adv-x="272" 
d="M189 0h-106v539h106v-539zM-13 682q0 29 15.5 41.5t37.5 12.5t38 -12.5t16 -41.5q0 -27 -16 -40.5t-38 -13.5t-37.5 13.5t-15.5 40.5zM178 682q0 29 15 41.5t38 12.5q21 0 37 -12.5t16 -41.5q0 -27 -16 -40.5t-37 -13.5q-23 0 -38 13.5t-15 40.5z" />
    <glyph glyph-name="eth" unicode="&#xf0;" horiz-adv-x="609" 
d="M218 765q33 -15 65.5 -33t60.5 -38l114 67l41 -60l-94 -55q70 -64 111.5 -156.5t41.5 -213.5q0 -141 -68.5 -213.5t-186.5 -72.5q-73 0 -130 29.5t-89 84t-32 131.5q0 113 64 177.5t171 64.5q105 0 150 -55l4 2q-17 52 -47 95.5t-69 78.5l-124 -73l-42 61l105 61
q-40 27 -85 50zM305 394q-77 0 -111 -41t-34 -121q0 -70 34 -114.5t111 -44.5q76 0 110.5 46.5t34.5 134.5q0 57 -35.5 98.5t-109.5 41.5z" />
    <glyph glyph-name="ntilde" unicode="&#xf1;" horiz-adv-x="630" 
d="M356 549q94 0 144 -47t50 -151v-351h-105v336q0 126 -111 126q-82 0 -113.5 -49t-31.5 -141v-272h-106v539h84l15 -72h6q26 42 71.5 62t96.5 20zM125 606q6 64 37 99t80 35q29 0 55 -14t50 -27.5t46 -13.5q39 0 53 56h57q-6 -64 -36.5 -99t-79.5 -35q-28 0 -54 13.5
t-50 27.5t-47 14q-41 0 -54 -56h-57z" />
    <glyph glyph-name="ograve" unicode="&#xf2;" horiz-adv-x="609" 
d="M558 270q0 -134 -69 -207t-186 -73q-73 0 -129.5 32.5t-89 95t-32.5 152.5q0 134 68 206.5t186 72.5q74 0 130.5 -32.5t89 -94.5t32.5 -152zM161 270q0 -91 34.5 -142t109.5 -51t109.5 51t34.5 142q0 92 -34.5 141.5t-110.5 49.5q-75 0 -109 -49.5t-34 -141.5zM279 766
q12 -22 30 -49.5t37.5 -54t34.5 -44.5v-12h-71q-24 18 -54.5 46.5t-58 57t-41.5 46.5v10h123z" />
    <glyph glyph-name="oacute" unicode="&#xf3;" horiz-adv-x="609" 
d="M558 270q0 -134 -69 -207t-186 -73q-73 0 -129.5 32.5t-89 95t-32.5 152.5q0 134 68 206.5t186 72.5q74 0 130.5 -32.5t89 -94.5t32.5 -152zM161 270q0 -91 34.5 -142t109.5 -51t109.5 51t34.5 142q0 92 -34.5 141.5t-110.5 49.5q-75 0 -109 -49.5t-34 -141.5zM461 766
v-10q-15 -18 -42.5 -46.5t-58 -57t-54.5 -46.5h-70v12q15 18 34 44.5t36.5 54t30.5 49.5h124z" />
    <glyph glyph-name="ocircumflex" unicode="&#xf4;" horiz-adv-x="609" 
d="M558 270q0 -134 -69 -207t-186 -73q-73 0 -129.5 32.5t-89 95t-32.5 152.5q0 134 68 206.5t186 72.5q74 0 130.5 -32.5t89 -94.5t32.5 -152zM161 270q0 -91 34.5 -142t109.5 -51t109.5 51t34.5 142q0 92 -34.5 141.5t-110.5 49.5q-75 0 -109 -49.5t-34 -141.5zM363 766
q13 -22 35.5 -49.5t46.5 -54t43 -44.5v-12h-73q-26 16 -55 39t-55 50q-27 -27 -54.5 -50t-53.5 -39h-72v12q18 19 42 45t46 53.5t36 49.5h114z" />
    <glyph glyph-name="otilde" unicode="&#xf5;" horiz-adv-x="609" 
d="M558 270q0 -134 -69 -207t-186 -73q-73 0 -129.5 32.5t-89 95t-32.5 152.5q0 134 68 206.5t186 72.5q74 0 130.5 -32.5t89 -94.5t32.5 -152zM161 270q0 -91 34.5 -142t109.5 -51t109.5 51t34.5 142q0 92 -34.5 141.5t-110.5 49.5q-75 0 -109 -49.5t-34 -141.5zM115 606
q6 64 37 99t80 35q29 0 55 -14t50 -27.5t46 -13.5q39 0 53 56h57q-6 -64 -36.5 -99t-79.5 -35q-28 0 -54 13.5t-50 27.5t-47 14q-41 0 -54 -56h-57z" />
    <glyph glyph-name="odieresis" unicode="&#xf6;" horiz-adv-x="609" 
d="M558 270q0 -134 -69 -207t-186 -73q-73 0 -129.5 32.5t-89 95t-32.5 152.5q0 134 68 206.5t186 72.5q74 0 130.5 -32.5t89 -94.5t32.5 -152zM161 270q0 -91 34.5 -142t109.5 -51t109.5 51t34.5 142q0 92 -34.5 141.5t-110.5 49.5q-75 0 -109 -49.5t-34 -141.5zM156 682
q0 29 15.5 41.5t37.5 12.5t38 -12.5t16 -41.5q0 -27 -16 -40.5t-38 -13.5t-37.5 13.5t-15.5 40.5zM347 682q0 29 15 41.5t38 12.5q21 0 37 -12.5t16 -41.5q0 -27 -16 -40.5t-37 -13.5q-23 0 -38 13.5t-15 40.5z" />
    <glyph glyph-name="divide" unicode="&#xf7;" horiz-adv-x="572" 
d="M285 458q-25 0 -42.5 15t-17.5 50q0 36 17.5 50t42.5 14q24 0 41.5 -14t17.5 -50q0 -35 -17.5 -50t-41.5 -15zM48 312v81h475v-81h-475zM285 117q-25 0 -42.5 15.5t-17.5 49.5q0 36 17.5 50t42.5 14q24 0 41.5 -14t17.5 -50q0 -34 -17.5 -49.5t-41.5 -15.5z" />
    <glyph glyph-name="oslash" unicode="&#xf8;" horiz-adv-x="609" 
d="M558 270q0 -134 -69 -207t-186 -73q-69 0 -125 30l-37 -54l-63 42l41 59q-32 36 -49.5 87t-17.5 116q0 134 68 206.5t186 72.5q36 0 68 -8.5t60 -24.5l36 51l63 -42l-40 -56q30 -36 47.5 -85.5t17.5 -113.5zM161 270q0 -34 4.5 -63t15.5 -51l200 285q-31 20 -77 20
q-75 0 -109 -49.5t-34 -141.5zM449 270q0 64 -18 108l-200 -283q30 -18 74 -18q75 0 109.5 51t34.5 142z" />
    <glyph glyph-name="ugrave" unicode="&#xf9;" horiz-adv-x="630" 
d="M547 539v-539h-85l-15 71h-5q-26 -42 -72 -61.5t-97 -19.5q-95 0 -145 46.5t-50 149.5v353h107v-337q0 -63 26.5 -94t82.5 -31q83 0 115 48.5t32 140.5v273h106zM289 766q12 -22 30 -49.5t37.5 -54t34.5 -44.5v-12h-71q-24 18 -54.5 46.5t-58 57t-41.5 46.5v10h123z" />
    <glyph glyph-name="uacute" unicode="&#xfa;" horiz-adv-x="630" 
d="M547 539v-539h-85l-15 71h-5q-26 -42 -72 -61.5t-97 -19.5q-95 0 -145 46.5t-50 149.5v353h107v-337q0 -63 26.5 -94t82.5 -31q83 0 115 48.5t32 140.5v273h106zM471 766v-10q-15 -18 -42.5 -46.5t-58 -57t-54.5 -46.5h-70v12q15 18 34 44.5t36.5 54t30.5 49.5h124z" />
    <glyph glyph-name="ucircumflex" unicode="&#xfb;" horiz-adv-x="630" 
d="M547 539v-539h-85l-15 71h-5q-26 -42 -72 -61.5t-97 -19.5q-95 0 -145 46.5t-50 149.5v353h107v-337q0 -63 26.5 -94t82.5 -31q83 0 115 48.5t32 140.5v273h106zM373 766q13 -22 35.5 -49.5t46.5 -54t43 -44.5v-12h-73q-26 16 -55 39t-55 50q-27 -27 -54.5 -50t-53.5 -39
h-72v12q18 19 42 45t46 53.5t36 49.5h114z" />
    <glyph glyph-name="udieresis" unicode="&#xfc;" horiz-adv-x="630" 
d="M547 539v-539h-85l-15 71h-5q-26 -42 -72 -61.5t-97 -19.5q-95 0 -145 46.5t-50 149.5v353h107v-337q0 -63 26.5 -94t82.5 -31q83 0 115 48.5t32 140.5v273h106zM166 682q0 29 15.5 41.5t37.5 12.5t38 -12.5t16 -41.5q0 -27 -16 -40.5t-38 -13.5t-37.5 13.5t-15.5 40.5z
M357 682q0 29 15 41.5t38 12.5q21 0 37 -12.5t16 -41.5q0 -27 -16 -40.5t-37 -13.5q-23 0 -38 13.5t-15 40.5z" />
    <glyph glyph-name="yacute" unicode="&#xfd;" horiz-adv-x="527" 
d="M1 539h114l112 -306q13 -35 23 -67t14 -64h4q5 26 15.5 61t23.5 71l106 305h114l-231 -612q-29 -78 -77.5 -122.5t-126.5 -44.5q-25 0 -43 2.5t-31 5.5v84q10 -2 26 -4t33 -2q46 0 74 26.5t44 69.5l22 58zM420 766v-10q-15 -18 -42.5 -46.5t-58 -57t-54.5 -46.5h-70v12
q15 18 34 44.5t36.5 54t30.5 49.5h124z" />
    <glyph glyph-name="thorn" unicode="&#xfe;" horiz-adv-x="620" 
d="M568 270q0 -137 -59 -208.5t-157 -71.5q-62 0 -101 22t-62 53h-6q1 -13 3.5 -39.5t2.5 -42.5v-223h-106v1000h106v-214q0 -17 -1.5 -41.5t-2.5 -37.5h5q22 34 61 58t101 24q97 0 156.5 -71t59.5 -208zM459 272q0 95 -31.5 142.5t-99.5 47.5q-76 0 -107 -43t-32 -130v-18
q0 -94 30 -144t110 -50q67 0 98.5 50.5t31.5 144.5z" />
    <glyph glyph-name="ydieresis" unicode="&#xff;" horiz-adv-x="527" 
d="M1 539h114l112 -306q13 -35 23 -67t14 -64h4q5 26 15.5 61t23.5 71l106 305h114l-231 -612q-29 -78 -77.5 -122.5t-126.5 -44.5q-25 0 -43 2.5t-31 5.5v84q10 -2 26 -4t33 -2q46 0 74 26.5t44 69.5l22 58zM115 682q0 29 15.5 41.5t37.5 12.5t38 -12.5t16 -41.5
q0 -27 -16 -40.5t-38 -13.5t-37.5 13.5t-15.5 40.5zM306 682q0 29 15 41.5t38 12.5q21 0 37 -12.5t16 -41.5q0 -27 -16 -40.5t-37 -13.5q-23 0 -38 13.5t-15 40.5z" />
    <glyph glyph-name="Amacron" unicode="&#x100;" horiz-adv-x="654" 
d="M540 0l-76 206h-276l-76 -206h-112l271 717h112l270 -717h-113zM434 300l-72 201q-4 11 -11 33t-14 46t-11 39q-8 -31 -18 -66t-16 -52l-72 -201h214zM479 861v-80h-307v80h307z" />
    <glyph glyph-name="amacron" unicode="&#x101;" horiz-adv-x="574" 
d="M292 549q101 0 151.5 -44.5t50.5 -139.5v-365h-75l-21 75h-4q-35 -44 -73.5 -64.5t-106.5 -20.5q-73 0 -121 39.5t-48 123.5q0 83 62.5 125.5t190.5 46.5l92 3v30q0 59 -27 83.5t-76 24.5q-41 0 -79 -12t-73 -29l-34 77q38 20 87.5 33.5t103.5 13.5zM389 259l-72 -2
q-92 -4 -127.5 -31t-35.5 -74q0 -42 25 -61t65 -19q62 0 103.5 35t41.5 105v47zM440 686v-80h-307v80h307z" />
    <glyph glyph-name="Abreve" unicode="&#x102;" horiz-adv-x="654" 
d="M540 0l-76 206h-276l-76 -206h-112l271 717h112l270 -717h-113zM434 300l-72 201q-4 11 -11 33t-14 46t-11 39q-8 -31 -18 -66t-16 -52l-72 -201h214zM497 924q-5 -64 -49.5 -103.5t-119.5 -39.5q-78 0 -119 39t-45 104h63q4 -41 31 -51.5t72 -10.5q38 0 68 11.5t35 50.5
h64z" />
    <glyph glyph-name="abreve" unicode="&#x103;" horiz-adv-x="574" 
d="M292 549q101 0 151.5 -44.5t50.5 -139.5v-365h-75l-21 75h-4q-35 -44 -73.5 -64.5t-106.5 -20.5q-73 0 -121 39.5t-48 123.5q0 83 62.5 125.5t190.5 46.5l92 3v30q0 59 -27 83.5t-76 24.5q-41 0 -79 -12t-73 -29l-34 77q38 20 87.5 33.5t103.5 13.5zM389 259l-72 -2
q-92 -4 -127.5 -31t-35.5 -74q0 -42 25 -61t65 -19q62 0 103.5 35t41.5 105v47zM458 749q-5 -64 -49.5 -103.5t-119.5 -39.5q-78 0 -119 39t-45 104h63q4 -41 31 -51.5t72 -10.5q38 0 68 11.5t35 50.5h64z" />
    <glyph glyph-name="Aogonek" unicode="&#x104;" horiz-adv-x="654" 
d="M540 0l-76 206h-276l-76 -206h-112l271 717h112l270 -717h-113zM434 300l-72 201q-4 11 -11 33t-14 46t-11 39q-8 -31 -18 -66t-16 -52l-72 -201h214zM554 -115q0 -22 11.5 -32.5t31.5 -10.5q16 0 29 2.5t22 4.5v-65q-15 -4 -30.5 -7t-35.5 -3q-55 0 -82 26.5t-27 72.5
q0 29 14.5 56t37 49.5t45.5 37.5l53 -16q-34 -32 -51.5 -59t-17.5 -56z" />
    <glyph glyph-name="aogonek" unicode="&#x105;" horiz-adv-x="574" 
d="M292 549q101 0 151.5 -44.5t50.5 -139.5v-365h-75l-21 75h-4q-35 -44 -73.5 -64.5t-106.5 -20.5q-73 0 -121 39.5t-48 123.5q0 83 62.5 125.5t190.5 46.5l92 3v30q0 59 -27 83.5t-76 24.5q-41 0 -79 -12t-73 -29l-34 77q38 20 87.5 33.5t103.5 13.5zM389 259l-72 -2
q-92 -4 -127.5 -31t-35.5 -74q0 -42 25 -61t65 -19q62 0 103.5 35t41.5 105v47zM422 -115q0 -22 11.5 -32.5t31.5 -10.5q16 0 29 2.5t22 4.5v-65q-15 -4 -30.5 -7t-35.5 -3q-55 0 -82 26.5t-27 72.5q0 29 14.5 56t37 49.5t45.5 37.5l53 -16q-34 -32 -51.5 -59t-17.5 -56z
" />
    <glyph glyph-name="Cacute" unicode="&#x106;" horiz-adv-x="633" 
d="M400 631q-106 0 -166.5 -73.5t-60.5 -201.5q0 -127 56 -200t170 -73q46 0 88.5 8.5t86.5 22.5v-93q-42 -16 -86 -23.5t-102 -7.5q-110 0 -182.5 45.5t-108 128t-35.5 193.5q0 108 39.5 190.5t115.5 129.5t186 47q54 0 105.5 -11.5t94.5 -32.5l-40 -90q-35 16 -75 28.5
t-86 12.5zM535 941v-10q-15 -18 -42.5 -46.5t-58 -57t-54.5 -46.5h-70v12q15 18 34 44.5t36.5 54t30.5 49.5h124z" />
    <glyph glyph-name="cacute" unicode="&#x107;" horiz-adv-x="490" 
d="M300 -10q-112 0 -180 66.5t-68 209.5q0 100 33 162t91 91.5t132 29.5q45 0 84.5 -9t65.5 -22l-32 -86q-28 10 -59 18.5t-60 8.5q-146 0 -146 -192q0 -92 36 -140t106 -48q44 0 79 10t64 26v-92q-29 -17 -63 -25t-83 -8zM441 766v-10q-15 -18 -42.5 -46.5t-58 -57
t-54.5 -46.5h-70v12q15 18 34 44.5t36.5 54t30.5 49.5h124z" />
    <glyph glyph-name="Ccircumflex" unicode="&#x108;" horiz-adv-x="633" 
d="M400 631q-106 0 -166.5 -73.5t-60.5 -201.5q0 -127 56 -200t170 -73q46 0 88.5 8.5t86.5 22.5v-93q-42 -16 -86 -23.5t-102 -7.5q-110 0 -182.5 45.5t-108 128t-35.5 193.5q0 108 39.5 190.5t115.5 129.5t186 47q54 0 105.5 -11.5t94.5 -32.5l-40 -90q-35 16 -75 28.5
t-86 12.5zM437 941q13 -22 35.5 -49.5t46.5 -54t43 -44.5v-12h-73q-26 16 -55 39t-55 50q-27 -27 -54.5 -50t-53.5 -39h-72v12q18 19 42 45t46 53.5t36 49.5h114z" />
    <glyph glyph-name="ccircumflex" unicode="&#x109;" horiz-adv-x="490" 
d="M300 -10q-112 0 -180 66.5t-68 209.5q0 100 33 162t91 91.5t132 29.5q45 0 84.5 -9t65.5 -22l-32 -86q-28 10 -59 18.5t-60 8.5q-146 0 -146 -192q0 -92 36 -140t106 -48q44 0 79 10t64 26v-92q-29 -17 -63 -25t-83 -8zM343 766q13 -22 35.5 -49.5t46.5 -54t43 -44.5v-12
h-73q-26 16 -55 39t-55 50q-27 -27 -54.5 -50t-53.5 -39h-72v12q18 19 42 45t46 53.5t36 49.5h114z" />
    <glyph glyph-name="Cdot" unicode="&#x10a;" horiz-adv-x="633" 
d="M400 631q-106 0 -166.5 -73.5t-60.5 -201.5q0 -127 56 -200t170 -73q46 0 88.5 8.5t86.5 22.5v-93q-42 -16 -86 -23.5t-102 -7.5q-110 0 -182.5 45.5t-108 128t-35.5 193.5q0 108 39.5 190.5t115.5 129.5t186 47q54 0 105.5 -11.5t94.5 -32.5l-40 -90q-35 16 -75 28.5
t-86 12.5zM382 919q24 0 41.5 -14t17.5 -47q0 -32 -17.5 -46.5t-41.5 -14.5q-25 0 -43 14.5t-18 46.5q0 33 18 47t43 14z" />
    <glyph glyph-name="cdot" unicode="&#x10b;" horiz-adv-x="490" 
d="M300 -10q-112 0 -180 66.5t-68 209.5q0 100 33 162t91 91.5t132 29.5q45 0 84.5 -9t65.5 -22l-32 -86q-28 10 -59 18.5t-60 8.5q-146 0 -146 -192q0 -92 36 -140t106 -48q44 0 79 10t64 26v-92q-29 -17 -63 -25t-83 -8zM288 744q24 0 41.5 -14t17.5 -47
q0 -32 -17.5 -46.5t-41.5 -14.5q-25 0 -43 14.5t-18 46.5q0 33 18 47t43 14z" />
    <glyph glyph-name="Ccaron" unicode="&#x10c;" horiz-adv-x="633" 
d="M400 631q-106 0 -166.5 -73.5t-60.5 -201.5q0 -127 56 -200t170 -73q46 0 88.5 8.5t86.5 22.5v-93q-42 -16 -86 -23.5t-102 -7.5q-110 0 -182.5 45.5t-108 128t-35.5 193.5q0 108 39.5 190.5t115.5 129.5t186 47q54 0 105.5 -11.5t94.5 -32.5l-40 -90q-35 16 -75 28.5
t-86 12.5zM322 781q-14 22 -36 49t-46 53t-42 45v13h72q26 -17 54 -40t54 -50q26 27 55 50.5t55 39.5h73v-13q-19 -19 -43 -44.5t-46.5 -53t-35.5 -49.5h-114z" />
    <glyph glyph-name="ccaron" unicode="&#x10d;" horiz-adv-x="490" 
d="M300 -10q-112 0 -180 66.5t-68 209.5q0 100 33 162t91 91.5t132 29.5q45 0 84.5 -9t65.5 -22l-32 -86q-28 10 -59 18.5t-60 8.5q-146 0 -146 -192q0 -92 36 -140t106 -48q44 0 79 10t64 26v-92q-29 -17 -63 -25t-83 -8zM228 606q-14 22 -36 49t-46 53t-42 45v13h72
q26 -17 54 -40t54 -50q26 27 55 50.5t55 39.5h73v-13q-19 -19 -43 -44.5t-46.5 -53t-35.5 -49.5h-114z" />
    <glyph glyph-name="Dcaron" unicode="&#x10e;" horiz-adv-x="733" 
d="M673 364q0 -181 -99.5 -272.5t-278.5 -91.5h-200v714h221q109 0 189 -40t124 -118t44 -192zM560 361q0 135 -65 198.5t-186 63.5h-106v-532h87q270 0 270 270zM307 781q-14 22 -36 49t-46 53t-42 45v13h72q26 -17 54 -40t54 -50q26 27 55 50.5t55 39.5h73v-13
q-19 -19 -43 -44.5t-46.5 -53t-35.5 -49.5h-114z" />
    <glyph glyph-name="dcaron" unicode="&#x10f;" horiz-adv-x="620" 
d="M268 -10q-98 0 -157 70t-59 208q0 139 60 210t158 71q61 0 100 -23t63 -56h6q-2 14 -5 41t-3 47v202h106v-760h-83l-18 72h-5q-23 -34 -62 -58t-101 -24zM293 77q78 0 109.5 43t32.5 131v16q0 95 -30.5 145t-112.5 50q-65 0 -98 -52t-33 -144q0 -91 33 -140t99 -49z
M709 760v-9q-10 -29 -31 -72.5t-44 -78.5h-60v12q10 29 19.5 72.5t13.5 75.5h102z" />
    <glyph glyph-name="Dcroat" unicode="&#x110;" horiz-adv-x="733" 
d="M316 714q108 0 188.5 -40t124.5 -118t44 -192q0 -181 -100 -272.5t-279 -91.5h-194v307h-72v92h72v315h216zM309 623h-101v-224h160v-92h-160v-216h82q270 0 270 270q0 135 -66 198.5t-185 63.5z" />
    <glyph glyph-name="dcroat" unicode="&#x111;" horiz-adv-x="626" 
d="M268 -10q-98 0 -157 69t-59 204q0 138 60 206.5t157 68.5q61 0 100.5 -23t63.5 -56h6q-1 6 -3 22t-3.5 34.5t-1.5 32.5v51h-195v75h195v86h106v-86h76v-75h-76v-599h-84l-18 72h-4q-23 -34 -62 -58t-101 -24zM294 77q77 0 108.5 42t32.5 127v16q0 92 -30.5 140.5
t-112.5 48.5q-65 0 -98 -50.5t-33 -139.5t33 -136.5t100 -47.5z" />
    <glyph glyph-name="Emacron" unicode="&#x112;" horiz-adv-x="557" 
d="M497 0h-402v714h402v-92h-294v-204h276v-91h-276v-234h294v-93zM457 861v-80h-307v80h307z" />
    <glyph glyph-name="emacron" unicode="&#x113;" horiz-adv-x="572" 
d="M295 549q106 0 167 -65.5t61 -178.5v-58h-362q2 -83 43.5 -127t116.5 -44q52 0 92.5 9.5t83.5 28.5v-88q-41 -19 -82 -27.5t-98 -8.5q-78 0 -138 31t-93.5 92t-33.5 152t30.5 154t85 96.5t127.5 33.5zM295 467q-57 0 -91.5 -37t-40.5 -105h254q-1 63 -30.5 102.5
t-91.5 39.5zM442 686v-80h-307v80h307z" />
    <glyph glyph-name="Ebreve" unicode="&#x114;" horiz-adv-x="557" 
d="M497 0h-402v714h402v-92h-294v-204h276v-91h-276v-234h294v-93zM475 924q-5 -64 -49.5 -103.5t-119.5 -39.5q-78 0 -119 39t-45 104h63q4 -41 31 -51.5t72 -10.5q38 0 68 11.5t35 50.5h64z" />
    <glyph glyph-name="ebreve" unicode="&#x115;" horiz-adv-x="572" 
d="M295 549q106 0 167 -65.5t61 -178.5v-58h-362q2 -83 43.5 -127t116.5 -44q52 0 92.5 9.5t83.5 28.5v-88q-41 -19 -82 -27.5t-98 -8.5q-78 0 -138 31t-93.5 92t-33.5 152t30.5 154t85 96.5t127.5 33.5zM295 467q-57 0 -91.5 -37t-40.5 -105h254q-1 63 -30.5 102.5
t-91.5 39.5zM459 749q-5 -64 -49.5 -103.5t-119.5 -39.5q-78 0 -119 39t-45 104h63q4 -41 31 -51.5t72 -10.5q38 0 68 11.5t35 50.5h64z" />
    <glyph glyph-name="Edotaccent" unicode="&#x116;" horiz-adv-x="557" 
d="M497 0h-402v714h402v-92h-294v-204h276v-91h-276v-234h294v-93zM307 919q24 0 41.5 -14t17.5 -47q0 -32 -17.5 -46.5t-41.5 -14.5q-25 0 -43 14.5t-18 46.5q0 33 18 47t43 14z" />
    <glyph glyph-name="edotaccent" unicode="&#x117;" horiz-adv-x="572" 
d="M295 549q106 0 167 -65.5t61 -178.5v-58h-362q2 -83 43.5 -127t116.5 -44q52 0 92.5 9.5t83.5 28.5v-88q-41 -19 -82 -27.5t-98 -8.5q-78 0 -138 31t-93.5 92t-33.5 152t30.5 154t85 96.5t127.5 33.5zM295 467q-57 0 -91.5 -37t-40.5 -105h254q-1 63 -30.5 102.5
t-91.5 39.5zM291 744q24 0 41.5 -14t17.5 -47q0 -32 -17.5 -46.5t-41.5 -14.5q-25 0 -43 14.5t-18 46.5q0 33 18 47t43 14z" />
    <glyph glyph-name="Eogonek" unicode="&#x118;" horiz-adv-x="557" 
d="M497 0h-402v714h402v-92h-294v-204h276v-91h-276v-234h294v-93zM400 -115q0 -22 11.5 -32.5t31.5 -10.5q16 0 29 2.5t22 4.5v-65q-15 -4 -30.5 -7t-35.5 -3q-55 0 -82 26.5t-27 72.5q0 29 14.5 56t37 49.5t45.5 37.5l53 -16q-34 -32 -51.5 -59t-17.5 -56z" />
    <glyph glyph-name="eogonek" unicode="&#x119;" horiz-adv-x="572" 
d="M396 -115q0 -22 12 -32.5t31 -10.5q17 0 29.5 2.5t21.5 4.5v-65q-15 -4 -30.5 -7t-35.5 -3q-55 0 -82 26.5t-27 72.5q0 34 20 65.5t47 54.5q-29 -3 -65 -3q-78 0 -138 31t-93.5 92t-33.5 152t30.5 154t85 96.5t127.5 33.5q106 0 167 -65.5t61 -178.5v-58h-362
q2 -83 43.5 -127t116.5 -44q52 0 92.5 9.5t83.5 28.5v-88q-60 -50 -80.5 -81t-20.5 -60zM295 467q-57 0 -91.5 -37t-40.5 -105h254q-1 63 -30.5 102.5t-91.5 39.5z" />
    <glyph glyph-name="Ecaron" unicode="&#x11a;" horiz-adv-x="557" 
d="M497 0h-402v714h402v-92h-294v-204h276v-91h-276v-234h294v-93zM247 781q-14 22 -36 49t-46 53t-42 45v13h72q26 -17 54 -40t54 -50q26 27 55 50.5t55 39.5h73v-13q-19 -19 -43 -44.5t-46.5 -53t-35.5 -49.5h-114z" />
    <glyph glyph-name="ecaron" unicode="&#x11b;" horiz-adv-x="572" 
d="M295 549q106 0 167 -65.5t61 -178.5v-58h-362q2 -83 43.5 -127t116.5 -44q52 0 92.5 9.5t83.5 28.5v-88q-41 -19 -82 -27.5t-98 -8.5q-78 0 -138 31t-93.5 92t-33.5 152t30.5 154t85 96.5t127.5 33.5zM295 467q-57 0 -91.5 -37t-40.5 -105h254q-1 63 -30.5 102.5
t-91.5 39.5zM231 606q-14 22 -36 49t-46 53t-42 45v13h72q26 -17 54 -40t54 -50q26 27 55 50.5t55 39.5h73v-13q-19 -19 -43 -44.5t-46.5 -53t-35.5 -49.5h-114z" />
    <glyph glyph-name="Gcircumflex" unicode="&#x11c;" horiz-adv-x="727" 
d="M393 384h258v-356q-57 -19 -116.5 -28.5t-135.5 -9.5q-164 0 -251.5 97t-87.5 270q0 112 43.5 194.5t126.5 127.5t201 45q59 0 113 -12t100 -31l-39 -90q-37 17 -83 28.5t-95 11.5q-79 0 -136.5 -33.5t-88 -95.5t-30.5 -146q0 -80 25 -142t79 -97t141 -35q43 0 72.5 4.5
t54.5 10.5v194h-151v93zM462 941q13 -22 35.5 -49.5t46.5 -54t43 -44.5v-12h-73q-26 16 -55 39t-55 50q-27 -27 -54.5 -50t-53.5 -39h-72v12q18 19 42 45t46 53.5t36 49.5h114z" />
    <glyph glyph-name="gcircumflex" unicode="&#x11d;" horiz-adv-x="620" 
d="M269 549q52 0 94 -20t71 -61h5l12 71h86v-546q0 -233 -249 -233q-58 0 -107 8t-90 25v93q42 -21 93.5 -31.5t109.5 -10.5q65 0 101.5 37.5t36.5 105.5v18q0 13 1 34t2 32h-4q-28 -42 -68.5 -61.5t-93.5 -19.5q-102 0 -159.5 73.5t-57.5 204.5q0 130 57.5 205.5
t159.5 75.5zM291 461q-63 0 -96.5 -49.5t-33.5 -144.5q0 -94 33.5 -143t98.5 -49q74 0 108.5 40.5t34.5 132.5v20q0 104 -35 148.5t-110 44.5zM360 766q13 -22 35.5 -49.5t46.5 -54t43 -44.5v-12h-73q-26 16 -55 39t-55 50q-27 -27 -54.5 -50t-53.5 -39h-72v12q18 19 42 45
t46 53.5t36 49.5h114z" />
    <glyph glyph-name="Gbreve" unicode="&#x11e;" horiz-adv-x="727" 
d="M393 384h258v-356q-57 -19 -116.5 -28.5t-135.5 -9.5q-164 0 -251.5 97t-87.5 270q0 112 43.5 194.5t126.5 127.5t201 45q59 0 113 -12t100 -31l-39 -90q-37 17 -83 28.5t-95 11.5q-79 0 -136.5 -33.5t-88 -95.5t-30.5 -146q0 -80 25 -142t79 -97t141 -35q43 0 72.5 4.5
t54.5 10.5v194h-151v93zM574 924q-5 -64 -49.5 -103.5t-119.5 -39.5q-78 0 -119 39t-45 104h63q4 -41 31 -51.5t72 -10.5q38 0 68 11.5t35 50.5h64z" />
    <glyph glyph-name="gbreve" unicode="&#x11f;" horiz-adv-x="620" 
d="M269 549q52 0 94 -20t71 -61h5l12 71h86v-546q0 -233 -249 -233q-58 0 -107 8t-90 25v93q42 -21 93.5 -31.5t109.5 -10.5q65 0 101.5 37.5t36.5 105.5v18q0 13 1 34t2 32h-4q-28 -42 -68.5 -61.5t-93.5 -19.5q-102 0 -159.5 73.5t-57.5 204.5q0 130 57.5 205.5
t159.5 75.5zM291 461q-63 0 -96.5 -49.5t-33.5 -144.5q0 -94 33.5 -143t98.5 -49q74 0 108.5 40.5t34.5 132.5v20q0 104 -35 148.5t-110 44.5zM473 749q-5 -64 -49.5 -103.5t-119.5 -39.5q-78 0 -119 39t-45 104h63q4 -41 31 -51.5t72 -10.5q38 0 68 11.5t35 50.5h64z" />
    <glyph glyph-name="Gdot" unicode="&#x120;" horiz-adv-x="727" 
d="M393 384h258v-356q-57 -19 -116.5 -28.5t-135.5 -9.5q-164 0 -251.5 97t-87.5 270q0 112 43.5 194.5t126.5 127.5t201 45q59 0 113 -12t100 -31l-39 -90q-37 17 -83 28.5t-95 11.5q-79 0 -136.5 -33.5t-88 -95.5t-30.5 -146q0 -80 25 -142t79 -97t141 -35q43 0 72.5 4.5
t54.5 10.5v194h-151v93zM407 919q24 0 41.5 -14t17.5 -47q0 -32 -17.5 -46.5t-41.5 -14.5q-25 0 -43 14.5t-18 46.5q0 33 18 47t43 14z" />
    <glyph glyph-name="gdot" unicode="&#x121;" horiz-adv-x="620" 
d="M269 549q52 0 94 -20t71 -61h5l12 71h86v-546q0 -233 -249 -233q-58 0 -107 8t-90 25v93q42 -21 93.5 -31.5t109.5 -10.5q65 0 101.5 37.5t36.5 105.5v18q0 13 1 34t2 32h-4q-28 -42 -68.5 -61.5t-93.5 -19.5q-102 0 -159.5 73.5t-57.5 204.5q0 130 57.5 205.5
t159.5 75.5zM291 461q-63 0 -96.5 -49.5t-33.5 -144.5q0 -94 33.5 -143t98.5 -49q74 0 108.5 40.5t34.5 132.5v20q0 104 -35 148.5t-110 44.5zM305 744q24 0 41.5 -14t17.5 -47q0 -32 -17.5 -46.5t-41.5 -14.5q-25 0 -43 14.5t-18 46.5q0 33 18 47t43 14z" />
    <glyph glyph-name="uni0122" unicode="&#x122;" horiz-adv-x="727" 
d="M393 384h258v-356q-57 -19 -116.5 -28.5t-135.5 -9.5q-164 0 -251.5 97t-87.5 270q0 112 43.5 194.5t126.5 127.5t201 45q59 0 113 -12t100 -31l-39 -90q-37 17 -83 28.5t-95 11.5q-79 0 -136.5 -33.5t-88 -95.5t-30.5 -146q0 -80 25 -142t79 -97t141 -35q43 0 72.5 4.5
t54.5 10.5v194h-151v93zM468 -61v-9q-9 -29 -31 -72.5t-49 -78.5h-59v12q7 17 14.5 44t14 55t8.5 49h102z" />
    <glyph glyph-name="uni0123" unicode="&#x123;" horiz-adv-x="620" 
d="M269 549q52 0 94 -20t71 -61h5l12 71h86v-546q0 -233 -249 -233q-58 0 -107 8t-90 25v93q42 -21 93.5 -31.5t109.5 -10.5q65 0 101.5 37.5t36.5 105.5v18q0 13 1 34t2 32h-4q-28 -42 -68.5 -61.5t-93.5 -19.5q-102 0 -159.5 73.5t-57.5 204.5q0 130 57.5 205.5
t159.5 75.5zM291 461q-63 0 -96.5 -49.5t-33.5 -144.5q0 -94 33.5 -143t98.5 -49q74 0 108.5 40.5t34.5 132.5v20q0 104 -35 148.5t-110 44.5zM372 766v-12q-7 -18 -15 -44.5t-14 -54t-9 -49.5h-102v9q9 29 31 72.5t49 78.5h60z" />
    <glyph glyph-name="Hcircumflex" unicode="&#x124;" horiz-adv-x="748" 
d="M652 0h-108v326h-341v-326h-108v714h108v-296h341v296h108v-714zM433 941q13 -22 35.5 -49.5t46.5 -54t43 -44.5v-12h-73q-26 16 -55 39t-55 50q-27 -27 -54.5 -50t-53.5 -39h-72v12q18 19 42 45t46 53.5t36 49.5h114z" />
    <glyph glyph-name="hcircumflex" unicode="&#x125;" horiz-adv-x="630" 
d="M189 760v-203q0 -25 -2 -50t-4 -41h7q26 41 69.5 61.5t94.5 20.5q95 0 145.5 -47t50.5 -150v-351h-105v336q0 126 -111 126q-83 0 -114 -50t-31 -141v-271h-106v760h106zM195 987q13 -22 35.5 -49.5t46.5 -54t43 -44.5v-12h-73q-26 16 -55 39t-55 50q-27 -27 -54.5 -50
t-53.5 -39h-72v12q18 19 42 45t46 53.5t36 49.5h114z" />
    <glyph glyph-name="Hbar" unicode="&#x126;" horiz-adv-x="748" 
d="M95 0v523h-95v79h95v112h108v-112h341v112h108v-112h95v-79h-95v-523h-108v326h-341v-326h-108zM203 418h341v105h-341v-105z" />
    <glyph glyph-name="hbar" unicode="&#x127;" horiz-adv-x="630" 
d="M189 760v-87h195v-75h-195v-64q0 -26 -2 -50t-4 -40h7q26 41 69.5 61.5t95.5 20.5q95 0 145 -47t50 -151v-328h-105v313q0 126 -111 126q-83 0 -114 -49.5t-31 -140.5v-249h-106v598h-76v75h76v87h106z" />
    <glyph glyph-name="Itilde" unicode="&#x128;" horiz-adv-x="354" 
d="M315 0h-277v62l85 25v539l-85 26v62h277v-62l-84 -26v-539l84 -25v-62zM-12 781q6 64 37 99t80 35q29 0 55 -14t50 -27.5t46 -13.5q39 0 53 56h57q-6 -64 -36.5 -99t-79.5 -35q-28 0 -54 13.5t-50 27.5t-47 14q-41 0 -54 -56h-57z" />
    <glyph glyph-name="itilde" unicode="&#x129;" horiz-adv-x="272" 
d="M189 0h-106v539h106v-539zM-54 606q6 64 37 99t80 35q29 0 55 -14t50 -27.5t46 -13.5q39 0 53 56h57q-6 -64 -36.5 -99t-79.5 -35q-28 0 -54 13.5t-50 27.5t-47 14q-41 0 -54 -56h-57z" />
    <glyph glyph-name="Imacron" unicode="&#x12a;" horiz-adv-x="354" 
d="M315 0h-277v62l85 25v539l-85 26v62h277v-62l-84 -26v-539l84 -25v-62zM331 861v-80h-307v80h307z" />
    <glyph glyph-name="imacron" unicode="&#x12b;" horiz-adv-x="272" 
d="M189 0h-106v539h106v-539zM289 686v-80h-307v80h307z" />
    <glyph glyph-name="Ibreve" unicode="&#x12c;" horiz-adv-x="354" 
d="M315 0h-277v62l85 25v539l-85 26v62h277v-62l-84 -26v-539l84 -25v-62zM348 924q-5 -64 -49.5 -103.5t-119.5 -39.5q-78 0 -119 39t-45 104h63q4 -41 31 -51.5t72 -10.5q38 0 68 11.5t35 50.5h64z" />
    <glyph glyph-name="ibreve" unicode="&#x12d;" horiz-adv-x="272" 
d="M189 0h-106v539h106v-539zM307 749q-5 -64 -49.5 -103.5t-119.5 -39.5q-78 0 -119 39t-45 104h63q4 -41 31 -51.5t72 -10.5q38 0 68 11.5t35 50.5h64z" />
    <glyph glyph-name="Iogonek" unicode="&#x12e;" horiz-adv-x="354" 
d="M315 0h-277v62l85 25v539l-85 26v62h277v-62l-84 -26v-539l84 -25v-62zM219 -115q0 -22 11.5 -32.5t31.5 -10.5q16 0 29 2.5t22 4.5v-65q-15 -4 -30.5 -7t-35.5 -3q-55 0 -82 26.5t-27 72.5q0 29 14.5 56t37 49.5t45.5 37.5l53 -16q-34 -32 -51.5 -59t-17.5 -56z" />
    <glyph glyph-name="iogonek" unicode="&#x12f;" horiz-adv-x="272" 
d="M137 744q24 0 42 -14t18 -47q0 -32 -18 -46.5t-42 -14.5q-25 0 -43 14.5t-18 46.5q0 33 18 47t43 14zM189 539v-539h-106v539h106zM113 -115q0 -22 11.5 -32.5t31.5 -10.5q16 0 29 2.5t22 4.5v-65q-15 -4 -30.5 -7t-35.5 -3q-55 0 -82 26.5t-27 72.5q0 29 14.5 56
t37 49.5t45.5 37.5l53 -16q-34 -32 -51.5 -59t-17.5 -56z" />
    <glyph glyph-name="Idotaccent" unicode="&#x130;" horiz-adv-x="354" 
d="M315 0h-277v62l85 25v539l-85 26v62h277v-62l-84 -26v-539l84 -25v-62zM181 919q24 0 41.5 -14t17.5 -47q0 -32 -17.5 -46.5t-41.5 -14.5q-25 0 -43 14.5t-18 46.5q0 33 18 47t43 14z" />
    <glyph glyph-name="IJ" unicode="&#x132;" horiz-adv-x="644" 
d="M315 0h-277v62l85 25v539l-85 26v62h277v-62l-84 -26v-539l84 -25v-62zM356 -196q-26 0 -45.5 3.5t-33.5 9.5v90q16 -4 34 -7t38 -3q25 0 47 10t35.5 35.5t13.5 73.5v698h108v-693q0 -113 -54.5 -165t-142.5 -52z" />
    <glyph glyph-name="ij" unicode="&#x133;" horiz-adv-x="544" 
d="M137 744q24 0 42 -14t18 -47q0 -32 -18 -46.5t-42 -14.5q-25 0 -43 14.5t-18 46.5q0 33 18 47t43 14zM189 539v-539h-106v539h106zM348 683q0 33 18 47t43 14q24 0 42 -14t18 -47q0 -32 -18 -46.5t-42 -14.5q-25 0 -43 14.5t-18 46.5zM298 -240q-26 0 -47.5 3.5
t-36.5 8.5v85q16 -5 32 -7.5t36 -2.5q32 0 52.5 17.5t20.5 66.5v608h106v-613q0 -75 -38.5 -120.5t-124.5 -45.5z" />
    <glyph glyph-name="Jcircumflex" unicode="&#x134;" horiz-adv-x="290" 
d="M2 -196q-26 0 -45.5 3.5t-33.5 9.5v90q16 -4 34 -7t38 -3q25 0 47 10t35.5 35.5t13.5 73.5v698h108v-693q0 -113 -54.5 -165t-142.5 -52zM204 941q13 -22 35.5 -49.5t46.5 -54t43 -44.5v-12h-73q-26 16 -55 39t-55 50q-27 -27 -54.5 -50t-53.5 -39h-72v12q18 19 42 45
t46 53.5t36 49.5h114z" />
    <glyph glyph-name="jcircumflex" unicode="&#x135;" horiz-adv-x="272" 
d="M26 -240q-26 0 -47.5 3.5t-36.5 8.5v85q16 -5 32 -7.5t36 -2.5q32 0 52.5 17.5t20.5 66.5v608h106v-613q0 -75 -38.5 -120.5t-124.5 -45.5zM194 766q13 -22 35.5 -49.5t46.5 -54t43 -44.5v-12h-73q-26 16 -55 39t-55 50q-27 -27 -54.5 -50t-53.5 -39h-72v12q18 19 42 45
t46 53.5t36 49.5h114z" />
    <glyph glyph-name="uni0136" unicode="&#x136;" horiz-adv-x="632" 
d="M632 0h-125l-234 329l-70 -58v-271h-108v714h108v-345q25 30 52 60t52 61l193 224h124l-273 -312zM405 -61v-9q-9 -29 -31 -72.5t-49 -78.5h-59v12q7 17 14.5 44t14 55t8.5 49h102z" />
    <glyph glyph-name="uni0137" unicode="&#x137;" horiz-adv-x="559" 
d="M188 760v-380q0 -20 -2 -48t-3 -50h3q11 15 30.5 39.5t34.5 40.5l165 177h123l-217 -231l231 -308h-125l-178 241l-62 -52v-189h-105v760h105zM349 -61v-9q-9 -29 -31 -72.5t-49 -78.5h-59v12q7 17 14.5 44t14 55t8.5 49h102z" />
    <glyph glyph-name="kgreenlandic" unicode="&#x138;" horiz-adv-x="559" 
d="M538 539l-207 -241l222 -298h-124l-169 232l-68 -51v-181h-109v539h109v-140q0 -37 -1.5 -73t-3.5 -58h2q12 15 24.5 30.5t23.5 29.5l179 211h122z" />
    <glyph glyph-name="Lacute" unicode="&#x139;" horiz-adv-x="536" 
d="M95 0v714h108v-621h305v-93h-413zM303 941v-10q-15 -18 -42.5 -46.5t-58 -57t-54.5 -46.5h-70v12q15 18 34 44.5t36.5 54t30.5 49.5h124z" />
    <glyph glyph-name="lacute" unicode="&#x13a;" horiz-adv-x="272" 
d="M189 0h-106v760h106v-760zM292 987v-10q-15 -18 -42.5 -46.5t-58 -57t-54.5 -46.5h-70v12q15 18 34 44.5t36.5 54t30.5 49.5h124z" />
    <glyph glyph-name="uni013B" unicode="&#x13b;" horiz-adv-x="536" 
d="M95 0v714h108v-621h305v-93h-413zM372 -61v-9q-9 -29 -31 -72.5t-49 -78.5h-59v12q7 17 14.5 44t14 55t8.5 49h102z" />
    <glyph glyph-name="uni013C" unicode="&#x13c;" horiz-adv-x="272" 
d="M189 0h-106v760h106v-760zM206 -61v-9q-9 -29 -31 -72.5t-49 -78.5h-59v12q7 17 14.5 44t14 55t8.5 49h102z" />
    <glyph glyph-name="Lcaron" unicode="&#x13d;" horiz-adv-x="536" 
d="M95 0v714h108v-621h305v-93h-413zM517 714v-9q-10 -29 -31 -72.5t-44 -78.5h-60v12q10 29 19.5 72.5t13.5 75.5h102z" />
    <glyph glyph-name="lcaron" unicode="&#x13e;" horiz-adv-x="272" 
d="M189 0h-106v760h106v-760zM363 760v-9q-10 -29 -31 -72.5t-44 -78.5h-60v12q10 29 19.5 72.5t13.5 75.5h102z" />
    <glyph glyph-name="Ldot" unicode="&#x13f;" horiz-adv-x="536" 
d="M95 0v714h108v-621h305v-93h-413zM400 429q24 0 41.5 -14t17.5 -47q0 -32 -17.5 -46.5t-41.5 -14.5q-25 0 -43 14.5t-18 46.5q0 33 18 47t43 14z" />
    <glyph glyph-name="ldot" unicode="&#x140;" horiz-adv-x="296" 
d="M189 0h-106v760h106v-760zM284 440q24 0 41.5 -14t17.5 -47q0 -32 -17.5 -46.5t-41.5 -14.5q-25 0 -43 14.5t-18 46.5q0 33 18 47t43 14z" />
    <glyph glyph-name="Lslash" unicode="&#x141;" horiz-adv-x="536" 
d="M95 0v245l-45 -26l-41 71l86 51v373h108v-308l117 69l42 -72l-159 -94v-216h305v-93h-413z" />
    <glyph glyph-name="lslash" unicode="&#x142;" horiz-adv-x="272" 
d="M78 0v270l-46 -29l-42 70l88 56v393h106v-326l55 37l43 -70l-98 -64v-337h-106z" />
    <glyph glyph-name="Nacute" unicode="&#x143;" horiz-adv-x="776" 
d="M681 0h-131l-361 577h-4q2 -40 4.5 -91.5t3.5 -105.5v-380h-98v714h130l360 -574h3q-1 21 -2.5 53t-2.5 68.5t-2 68.5v384h100v-714zM544 941v-10q-15 -18 -42.5 -46.5t-58 -57t-54.5 -46.5h-70v12q15 18 34 44.5t36.5 54t30.5 49.5h124z" />
    <glyph glyph-name="nacute" unicode="&#x144;" horiz-adv-x="630" 
d="M356 549q94 0 144 -47t50 -151v-351h-105v336q0 126 -111 126q-82 0 -113.5 -49t-31.5 -141v-272h-106v539h84l15 -72h6q26 42 71.5 62t96.5 20zM471 766v-10q-15 -18 -42.5 -46.5t-58 -57t-54.5 -46.5h-70v12q15 18 34 44.5t36.5 54t30.5 49.5h124z" />
    <glyph glyph-name="uni0145" unicode="&#x145;" horiz-adv-x="776" 
d="M681 0h-131l-361 577h-4q2 -40 4.5 -91.5t3.5 -105.5v-380h-98v714h130l360 -574h3q-1 21 -2.5 53t-2.5 68.5t-2 68.5v384h100v-714zM457 -61v-9q-9 -29 -31 -72.5t-49 -78.5h-59v12q7 17 14.5 44t14 55t8.5 49h102z" />
    <glyph glyph-name="uni0146" unicode="&#x146;" horiz-adv-x="630" 
d="M356 549q94 0 144 -47t50 -151v-351h-105v336q0 126 -111 126q-82 0 -113.5 -49t-31.5 -141v-272h-106v539h84l15 -72h6q26 42 71.5 62t96.5 20zM384 -61v-9q-9 -29 -31 -72.5t-49 -78.5h-59v12q7 17 14.5 44t14 55t8.5 49h102z" />
    <glyph glyph-name="Ncaron" unicode="&#x147;" horiz-adv-x="776" 
d="M681 0h-131l-361 577h-4q2 -40 4.5 -91.5t3.5 -105.5v-380h-98v714h130l360 -574h3q-1 21 -2.5 53t-2.5 68.5t-2 68.5v384h100v-714zM331 781q-14 22 -36 49t-46 53t-42 45v13h72q26 -17 54 -40t54 -50q26 27 55 50.5t55 39.5h73v-13q-19 -19 -43 -44.5t-46.5 -53
t-35.5 -49.5h-114z" />
    <glyph glyph-name="ncaron" unicode="&#x148;" horiz-adv-x="630" 
d="M356 549q94 0 144 -47t50 -151v-351h-105v336q0 126 -111 126q-82 0 -113.5 -49t-31.5 -141v-272h-106v539h84l15 -72h6q26 42 71.5 62t96.5 20zM258 606q-14 22 -36 49t-46 53t-42 45v13h72q26 -17 54 -40t54 -50q26 27 55 50.5t55 39.5h73v-13q-19 -19 -43 -44.5
t-46.5 -53t-35.5 -49.5h-114z" />
    <glyph glyph-name="napostrophe" unicode="&#x149;" horiz-adv-x="712" 
d="M439 549q94 0 144 -47t50 -151v-351h-105v336q0 126 -111 126q-82 0 -113.5 -49t-31.5 -141v-272h-106v539h84l15 -72h6q26 42 71.5 62t96.5 20zM157 714l7 -11q-13 -53 -37 -116.5t-49 -117.5h-77q14 57 28 125t22 120h106z" />
    <glyph glyph-name="Eng" unicode="&#x14a;" horiz-adv-x="776" 
d="M481 -196q-51 0 -82 13v88q17 -5 36 -7.5t42 -2.5q43 0 74 22.5t32 83.5l-394 576h-4q1 -13 3 -48t3.5 -78t1.5 -79v-372h-98v714h130l360 -533h3q-1 15 -2.5 48.5t-3 74t-1.5 76.5v334h100v-710q0 -103 -54.5 -151.5t-145.5 -48.5z" />
    <glyph glyph-name="eng" unicode="&#x14b;" horiz-adv-x="630" 
d="M397 -240q-23 0 -43 3.5t-33 8.5v85q13 -5 27.5 -7.5t31.5 -2.5q28 0 46.5 17.5t18.5 66.5v409q0 122 -110 122q-83 0 -114.5 -49t-31.5 -140v-273h-106v539h84l15 -72h7q26 42 70.5 62t96.5 20q94 0 144.5 -46.5t50.5 -150.5v-426q0 -75 -36.5 -120.5t-117.5 -45.5z" />
    <glyph glyph-name="Omacron" unicode="&#x14c;" horiz-adv-x="785" 
d="M725 358q0 -111 -37 -193.5t-111 -128.5t-184 -46q-113 0 -187 46t-110 129t-36 194q0 110 36 192.5t110 128t188 45.5q110 0 183.5 -45.5t110.5 -128t37 -193.5zM174 358q0 -128 53 -202t166 -74q114 0 166 74t52 202t-52 201t-165 73q-114 0 -167 -73t-53 -201z
M546 861v-80h-307v80h307z" />
    <glyph glyph-name="omacron" unicode="&#x14d;" horiz-adv-x="609" 
d="M558 270q0 -134 -69 -207t-186 -73q-73 0 -129.5 32.5t-89 95t-32.5 152.5q0 134 68 206.5t186 72.5q74 0 130.5 -32.5t89 -94.5t32.5 -152zM161 270q0 -91 34.5 -142t109.5 -51t109.5 51t34.5 142q0 92 -34.5 141.5t-110.5 49.5q-75 0 -109 -49.5t-34 -141.5zM458 686
v-80h-307v80h307z" />
    <glyph glyph-name="Obreve" unicode="&#x14e;" horiz-adv-x="785" 
d="M725 358q0 -111 -37 -193.5t-111 -128.5t-184 -46q-113 0 -187 46t-110 129t-36 194q0 110 36 192.5t110 128t188 45.5q110 0 183.5 -45.5t110.5 -128t37 -193.5zM174 358q0 -128 53 -202t166 -74q114 0 166 74t52 202t-52 201t-165 73q-114 0 -167 -73t-53 -201z
M564 924q-5 -64 -49.5 -103.5t-119.5 -39.5q-78 0 -119 39t-45 104h63q4 -41 31 -51.5t72 -10.5q38 0 68 11.5t35 50.5h64z" />
    <glyph glyph-name="obreve" unicode="&#x14f;" horiz-adv-x="609" 
d="M558 270q0 -134 -69 -207t-186 -73q-73 0 -129.5 32.5t-89 95t-32.5 152.5q0 134 68 206.5t186 72.5q74 0 130.5 -32.5t89 -94.5t32.5 -152zM161 270q0 -91 34.5 -142t109.5 -51t109.5 51t34.5 142q0 92 -34.5 141.5t-110.5 49.5q-75 0 -109 -49.5t-34 -141.5zM476 749
q-5 -64 -49.5 -103.5t-119.5 -39.5q-78 0 -119 39t-45 104h63q4 -41 31 -51.5t72 -10.5q38 0 68 11.5t35 50.5h64z" />
    <glyph glyph-name="Ohungarumlaut" unicode="&#x150;" horiz-adv-x="785" 
d="M725 358q0 -111 -37 -193.5t-111 -128.5t-184 -46q-113 0 -187 46t-110 129t-36 194q0 110 36 192.5t110 128t188 45.5q110 0 183.5 -45.5t110.5 -128t37 -193.5zM174 358q0 -128 53 -202t166 -74q114 0 166 74t52 202t-52 201t-165 73q-114 0 -167 -73t-53 -201z
M645 941v-10q-10 -18 -35.5 -46.5t-54.5 -57t-52 -46.5h-59v12q14 19 30.5 45t32.5 53.5t27 49.5h111zM463 941v-10q-10 -18 -35 -46.5t-54 -57t-52 -46.5h-59v12q14 19 30.5 45t32 53.5t26.5 49.5h111z" />
    <glyph glyph-name="ohungarumlaut" unicode="&#x151;" horiz-adv-x="609" 
d="M558 270q0 -134 -69 -207t-186 -73q-73 0 -129.5 32.5t-89 95t-32.5 152.5q0 134 68 206.5t186 72.5q74 0 130.5 -32.5t89 -94.5t32.5 -152zM161 270q0 -91 34.5 -142t109.5 -51t109.5 51t34.5 142q0 92 -34.5 141.5t-110.5 49.5q-75 0 -109 -49.5t-34 -141.5zM557 766
v-10q-10 -18 -35.5 -46.5t-54.5 -57t-52 -46.5h-59v12q14 19 30.5 45t32.5 53.5t27 49.5h111zM375 766v-10q-10 -18 -35 -46.5t-54 -57t-52 -46.5h-59v12q14 19 30.5 45t32 53.5t26.5 49.5h111z" />
    <glyph glyph-name="OE" unicode="&#x152;" horiz-adv-x="941" 
d="M384 725q54 0 100 -11h398v-92h-284v-204h265v-91h-265v-234h284v-93h-394q-22 -4 -49 -7t-52 -3q-111 0 -183.5 46t-108 129t-35.5 194t35.5 193t107 127.5t181.5 45.5zM390 632q-112 0 -165 -73t-53 -201t52.5 -202t164.5 -74q58 0 102 18v515q-20 9 -46.5 13t-54.5 4z
" />
    <glyph glyph-name="oe" unicode="&#x153;" horiz-adv-x="955" 
d="M679 548q106 0 166.5 -65t60.5 -178v-58h-358q2 -87 42 -129t114 -42q52 0 93 9.5t83 28.5v-88q-41 -19 -81.5 -27.5t-97.5 -8.5q-67 0 -119 25t-85 76q-32 -50 -82.5 -75.5t-114.5 -25.5q-72 0 -128 32.5t-88.5 95t-32.5 152.5q0 134 67 206t184 72q61 0 110.5 -25
t80.5 -75q65 100 186 100zM679 466q-55 0 -89 -35.5t-40 -105.5h249q0 63 -29 102t-91 39zM299 461q-73 0 -105.5 -48t-32.5 -143t33.5 -144t106.5 -49q72 0 105.5 48.5t33.5 142.5q0 98 -34 145.5t-107 47.5z" />
    <glyph glyph-name="Racute" unicode="&#x154;" horiz-adv-x="633" 
d="M295 714q137 0 202.5 -51t65.5 -155q0 -55 -20 -92.5t-52.5 -61.5t-67.5 -37l200 -317h-124l-172 289h-124v-289h-108v714h200zM288 622h-85v-243h90q83 0 121 31.5t38 93.5q0 64 -40 91t-124 27zM475 941v-10q-15 -18 -42.5 -46.5t-58 -57t-54.5 -46.5h-70v12
q15 18 34 44.5t36.5 54t30.5 49.5h124z" />
    <glyph glyph-name="racute" unicode="&#x155;" horiz-adv-x="425" 
d="M349 549q32 0 59 -5l-11 -99q-26 7 -54 7q-41 0 -76 -20t-56.5 -57.5t-21.5 -90.5v-284h-106v539h84l14 -96h4q25 43 67 74.5t97 31.5zM400 766v-10q-15 -18 -42.5 -46.5t-58 -57t-54.5 -46.5h-70v12q15 18 34 44.5t36.5 54t30.5 49.5h124z" />
    <glyph glyph-name="uni0156" unicode="&#x156;" horiz-adv-x="633" 
d="M295 714q137 0 202.5 -51t65.5 -155q0 -55 -20 -92.5t-52.5 -61.5t-67.5 -37l200 -317h-124l-172 289h-124v-289h-108v714h200zM288 622h-85v-243h90q83 0 121 31.5t38 93.5q0 64 -40 91t-124 27zM406 -61v-9q-9 -29 -31 -72.5t-49 -78.5h-59v12q7 17 14.5 44t14 55
t8.5 49h102z" />
    <glyph glyph-name="uni0157" unicode="&#x157;" horiz-adv-x="425" 
d="M349 549q32 0 59 -5l-11 -99q-26 7 -54 7q-41 0 -76 -20t-56.5 -57.5t-21.5 -90.5v-284h-106v539h84l14 -96h4q25 43 67 74.5t97 31.5zM204 -61v-9q-9 -29 -31 -72.5t-49 -78.5h-59v12q7 17 14.5 44t14 55t8.5 49h102z" />
    <glyph glyph-name="Rcaron" unicode="&#x158;" horiz-adv-x="633" 
d="M295 714q137 0 202.5 -51t65.5 -155q0 -55 -20 -92.5t-52.5 -61.5t-67.5 -37l200 -317h-124l-172 289h-124v-289h-108v714h200zM288 622h-85v-243h90q83 0 121 31.5t38 93.5q0 64 -40 91t-124 27zM262 781q-14 22 -36 49t-46 53t-42 45v13h72q26 -17 54 -40t54 -50
q26 27 55 50.5t55 39.5h73v-13q-19 -19 -43 -44.5t-46.5 -53t-35.5 -49.5h-114z" />
    <glyph glyph-name="rcaron" unicode="&#x159;" horiz-adv-x="425" 
d="M349 549q32 0 59 -5l-11 -99q-26 7 -54 7q-41 0 -76 -20t-56.5 -57.5t-21.5 -90.5v-284h-106v539h84l14 -96h4q25 43 67 74.5t97 31.5zM187 606q-14 22 -36 49t-46 53t-42 45v13h72q26 -17 54 -40t54 -50q26 27 55 50.5t55 39.5h73v-13q-19 -19 -43 -44.5t-46.5 -53
t-35.5 -49.5h-114z" />
    <glyph glyph-name="Sacute" unicode="&#x15a;" horiz-adv-x="550" 
d="M505 193q0 -95 -69 -149t-189 -54q-59 0 -110 9.5t-87 27.5v102q40 -18 94 -32.5t110 -14.5q72 0 108 28t36 75q0 33 -16 55.5t-51.5 42t-92.5 41.5q-52 20 -93 47t-64 67t-23 98q0 88 64 138t168 50q58 0 107.5 -12t94.5 -31l-34 -89q-41 17 -83.5 28t-87.5 11
q-59 0 -90 -26t-31 -68q0 -33 15 -55.5t48 -41t87 -39.5q60 -24 102.5 -50.5t64.5 -64t22 -93.5zM441 941v-10q-15 -18 -42.5 -46.5t-58 -57t-54.5 -46.5h-70v12q15 18 34 44.5t36.5 54t30.5 49.5h124z" />
    <glyph glyph-name="sacute" unicode="&#x15b;" horiz-adv-x="484" 
d="M441 152q0 -80 -57.5 -121t-161.5 -41q-57 0 -97.5 8t-74.5 25v93q35 -17 82.5 -30.5t92.5 -13.5q60 0 86.5 19t26.5 51q0 18 -10 32.5t-37.5 30t-80.5 35.5q-52 20 -87.5 41t-54.5 50t-19 73q0 70 56.5 107.5t149.5 37.5q49 0 92.5 -10t84.5 -28l-35 -81
q-35 15 -72 25.5t-75 10.5q-98 0 -98 -57q0 -19 11.5 -33t40 -28t79.5 -34q49 -19 84.5 -39.5t54.5 -49.5t19 -73zM399 766v-10q-15 -18 -42.5 -46.5t-58 -57t-54.5 -46.5h-70v12q15 18 34 44.5t36.5 54t30.5 49.5h124z" />
    <glyph glyph-name="Scircumflex" unicode="&#x15c;" horiz-adv-x="550" 
d="M505 193q0 -95 -69 -149t-189 -54q-59 0 -110 9.5t-87 27.5v102q40 -18 94 -32.5t110 -14.5q72 0 108 28t36 75q0 33 -16 55.5t-51.5 42t-92.5 41.5q-52 20 -93 47t-64 67t-23 98q0 88 64 138t168 50q58 0 107.5 -12t94.5 -31l-34 -89q-41 17 -83.5 28t-87.5 11
q-59 0 -90 -26t-31 -68q0 -33 15 -55.5t48 -41t87 -39.5q60 -24 102.5 -50.5t64.5 -64t22 -93.5zM343 941q13 -22 35.5 -49.5t46.5 -54t43 -44.5v-12h-73q-26 16 -55 39t-55 50q-27 -27 -54.5 -50t-53.5 -39h-72v12q18 19 42 45t46 53.5t36 49.5h114z" />
    <glyph glyph-name="scircumflex" unicode="&#x15d;" horiz-adv-x="484" 
d="M441 152q0 -80 -57.5 -121t-161.5 -41q-57 0 -97.5 8t-74.5 25v93q35 -17 82.5 -30.5t92.5 -13.5q60 0 86.5 19t26.5 51q0 18 -10 32.5t-37.5 30t-80.5 35.5q-52 20 -87.5 41t-54.5 50t-19 73q0 70 56.5 107.5t149.5 37.5q49 0 92.5 -10t84.5 -28l-35 -81
q-35 15 -72 25.5t-75 10.5q-98 0 -98 -57q0 -19 11.5 -33t40 -28t79.5 -34q49 -19 84.5 -39.5t54.5 -49.5t19 -73zM301 766q13 -22 35.5 -49.5t46.5 -54t43 -44.5v-12h-73q-26 16 -55 39t-55 50q-27 -27 -54.5 -50t-53.5 -39h-72v12q18 19 42 45t46 53.5t36 49.5h114z" />
    <glyph glyph-name="Scedilla" unicode="&#x15e;" horiz-adv-x="550" 
d="M505 193q0 -95 -69 -149t-189 -54q-59 0 -110 9.5t-87 27.5v102q40 -18 94 -32.5t110 -14.5q72 0 108 28t36 75q0 33 -16 55.5t-51.5 42t-92.5 41.5q-52 20 -93 47t-64 67t-23 98q0 88 64 138t168 50q58 0 107.5 -12t94.5 -31l-34 -89q-41 17 -83.5 28t-87.5 11
q-59 0 -90 -26t-31 -68q0 -33 15 -55.5t48 -41t87 -39.5q60 -24 102.5 -50.5t64.5 -64t22 -93.5zM366 -134q0 -50 -36 -78t-113 -28q-17 0 -31.5 2t-24.5 4v63q11 -2 27 -4t31 -2q29 0 45.5 8.5t16.5 31.5q0 24 -23.5 36.5t-64.5 17.5l42 83h68l-22 -46q35 -9 60 -29.5
t25 -58.5z" />
    <glyph glyph-name="scedilla" unicode="&#x15f;" horiz-adv-x="484" 
d="M441 152q0 -80 -57.5 -121t-161.5 -41q-57 0 -97.5 8t-74.5 25v93q35 -17 82.5 -30.5t92.5 -13.5q60 0 86.5 19t26.5 51q0 18 -10 32.5t-37.5 30t-80.5 35.5q-52 20 -87.5 41t-54.5 50t-19 73q0 70 56.5 107.5t149.5 37.5q49 0 92.5 -10t84.5 -28l-35 -81
q-35 15 -72 25.5t-75 10.5q-98 0 -98 -57q0 -19 11.5 -33t40 -28t79.5 -34q49 -19 84.5 -39.5t54.5 -49.5t19 -73zM348 -134q0 -50 -36 -78t-113 -28q-17 0 -31.5 2t-24.5 4v63q11 -2 27 -4t31 -2q29 0 45.5 8.5t16.5 31.5q0 24 -23.5 36.5t-64.5 17.5l42 83h68l-22 -46
q35 -9 60 -29.5t25 -58.5z" />
    <glyph glyph-name="Scaron" unicode="&#x160;" horiz-adv-x="550" 
d="M505 193q0 -95 -69 -149t-189 -54q-59 0 -110 9.5t-87 27.5v102q40 -18 94 -32.5t110 -14.5q72 0 108 28t36 75q0 33 -16 55.5t-51.5 42t-92.5 41.5q-52 20 -93 47t-64 67t-23 98q0 88 64 138t168 50q58 0 107.5 -12t94.5 -31l-34 -89q-41 17 -83.5 28t-87.5 11
q-59 0 -90 -26t-31 -68q0 -33 15 -55.5t48 -41t87 -39.5q60 -24 102.5 -50.5t64.5 -64t22 -93.5zM228 781q-14 22 -36 49t-46 53t-42 45v13h72q26 -17 54 -40t54 -50q26 27 55 50.5t55 39.5h73v-13q-19 -19 -43 -44.5t-46.5 -53t-35.5 -49.5h-114z" />
    <glyph glyph-name="scaron" unicode="&#x161;" horiz-adv-x="484" 
d="M441 152q0 -80 -57.5 -121t-161.5 -41q-57 0 -97.5 8t-74.5 25v93q35 -17 82.5 -30.5t92.5 -13.5q60 0 86.5 19t26.5 51q0 18 -10 32.5t-37.5 30t-80.5 35.5q-52 20 -87.5 41t-54.5 50t-19 73q0 70 56.5 107.5t149.5 37.5q49 0 92.5 -10t84.5 -28l-35 -81
q-35 15 -72 25.5t-75 10.5q-98 0 -98 -57q0 -19 11.5 -33t40 -28t79.5 -34q49 -19 84.5 -39.5t54.5 -49.5t19 -73zM186 606q-14 22 -36 49t-46 53t-42 45v13h72q26 -17 54 -40t54 -50q26 27 55 50.5t55 39.5h73v-13q-19 -19 -43 -44.5t-46.5 -53t-35.5 -49.5h-114z" />
    <glyph glyph-name="uni021A" unicode="&#x21a;" horiz-adv-x="563" 
d="M335 0h-108v621h-214v93h536v-93h-214v-621zM351 -61v-9q-9 -29 -31 -72.5t-49 -78.5h-59v12q7 17 14.5 44t14 55t8.5 49h102z" />
    <glyph glyph-name="uni021B" unicode="&#x21b;" horiz-adv-x="383" 
d="M277 76q45 0 81 13v-80q-17 -8 -46 -13.5t-58 -5.5q-44 0 -80.5 15t-58.5 52t-22 103v298h-75v48l79 40l37 114h65v-121h154v-81h-154v-296q0 -44 21.5 -65t56.5 -21zM291 -61v-9q-9 -29 -31 -72.5t-49 -78.5h-59v12q7 17 14.5 44t14 55t8.5 49h102z" />
    <glyph glyph-name="Tcaron" unicode="&#x164;" horiz-adv-x="563" 
d="M335 0h-108v621h-214v93h536v-93h-214v-621zM224 781q-14 22 -36 49t-46 53t-42 45v13h72q26 -17 54 -40t54 -50q26 27 55 50.5t55 39.5h73v-13q-19 -19 -43 -44.5t-46.5 -53t-35.5 -49.5h-114z" />
    <glyph glyph-name="tcaron" unicode="&#x165;" horiz-adv-x="383" 
d="M277 76q45 0 81 13v-80q-17 -8 -46 -13.5t-58 -5.5q-44 0 -80.5 15t-58.5 52t-22 103v298h-75v48l79 40l37 114h65v-121h154v-81h-154v-296q0 -44 21.5 -65t56.5 -21zM500 760v-9q-10 -29 -31 -72.5t-44 -78.5h-60v12q10 29 19.5 72.5t13.5 75.5h102z" />
    <glyph glyph-name="Tbar" unicode="&#x166;" horiz-adv-x="563" 
d="M227 0v315h-141v89h141v216h-214v94h536v-94h-214v-216h140v-89h-140v-315h-108z" />
    <glyph glyph-name="tbar" unicode="&#x167;" horiz-adv-x="383" 
d="M26 269v75h67v114h-75v48l79 40l37 114h65v-121h154v-81h-154v-114h143v-75h-143v-107q0 -44 21.5 -65t56.5 -21q45 0 81 13v-80q-17 -8 -46 -13.5t-58 -5.5q-44 0 -80.5 15t-58.5 52t-22 103v109h-67z" />
    <glyph glyph-name="Utilde" unicode="&#x168;" horiz-adv-x="738" 
d="M649 714v-462q0 -74 -30.5 -133.5t-93.5 -94t-159 -34.5q-136 0 -206.5 72.5t-70.5 191.5v460h108v-455q0 -177 174 -177q90 0 130.5 48t40.5 130v454h107zM180 781q6 64 37 99t80 35q29 0 55 -14t50 -27.5t46 -13.5q39 0 53 56h57q-6 -64 -36.5 -99t-79.5 -35
q-28 0 -54 13.5t-50 27.5t-47 14q-41 0 -54 -56h-57z" />
    <glyph glyph-name="utilde" unicode="&#x169;" horiz-adv-x="630" 
d="M547 539v-539h-85l-15 71h-5q-26 -42 -72 -61.5t-97 -19.5q-95 0 -145 46.5t-50 149.5v353h107v-337q0 -63 26.5 -94t82.5 -31q83 0 115 48.5t32 140.5v273h106zM125 606q6 64 37 99t80 35q29 0 55 -14t50 -27.5t46 -13.5q39 0 53 56h57q-6 -64 -36.5 -99t-79.5 -35
q-28 0 -54 13.5t-50 27.5t-47 14q-41 0 -54 -56h-57z" />
    <glyph glyph-name="Umacron" unicode="&#x16a;" horiz-adv-x="738" 
d="M649 714v-462q0 -74 -30.5 -133.5t-93.5 -94t-159 -34.5q-136 0 -206.5 72.5t-70.5 191.5v460h108v-455q0 -177 174 -177q90 0 130.5 48t40.5 130v454h107zM523 861v-80h-307v80h307z" />
    <glyph glyph-name="umacron" unicode="&#x16b;" horiz-adv-x="630" 
d="M547 539v-539h-85l-15 71h-5q-26 -42 -72 -61.5t-97 -19.5q-95 0 -145 46.5t-50 149.5v353h107v-337q0 -63 26.5 -94t82.5 -31q83 0 115 48.5t32 140.5v273h106zM468 686v-80h-307v80h307z" />
    <glyph glyph-name="Ubreve" unicode="&#x16c;" horiz-adv-x="738" 
d="M649 714v-462q0 -74 -30.5 -133.5t-93.5 -94t-159 -34.5q-136 0 -206.5 72.5t-70.5 191.5v460h108v-455q0 -177 174 -177q90 0 130.5 48t40.5 130v454h107zM540 924q-5 -64 -49.5 -103.5t-119.5 -39.5q-78 0 -119 39t-45 104h63q4 -41 31 -51.5t72 -10.5q38 0 68 11.5
t35 50.5h64z" />
    <glyph glyph-name="ubreve" unicode="&#x16d;" horiz-adv-x="630" 
d="M547 539v-539h-85l-15 71h-5q-26 -42 -72 -61.5t-97 -19.5q-95 0 -145 46.5t-50 149.5v353h107v-337q0 -63 26.5 -94t82.5 -31q83 0 115 48.5t32 140.5v273h106zM486 749q-5 -64 -49.5 -103.5t-119.5 -39.5q-78 0 -119 39t-45 104h63q4 -41 31 -51.5t72 -10.5
q38 0 68 11.5t35 50.5h64z" />
    <glyph glyph-name="Uring" unicode="&#x16e;" horiz-adv-x="738" 
d="M649 714v-462q0 -74 -30.5 -133.5t-93.5 -94t-159 -34.5q-136 0 -206.5 72.5t-70.5 191.5v460h108v-455q0 -177 174 -177q90 0 130.5 48t40.5 130v454h107zM371 781q-51 0 -82 28.5t-31 80.5q0 50 31 79t82 29q48 0 81 -28.5t33 -78.5q0 -52 -32.5 -81t-81.5 -29z
M371 836q23 0 38 14.5t15 39.5t-15 39t-38 14t-38.5 -14t-15.5 -39q0 -54 54 -54z" />
    <glyph glyph-name="uring" unicode="&#x16f;" horiz-adv-x="630" 
d="M547 539v-539h-85l-15 71h-5q-26 -42 -72 -61.5t-97 -19.5q-95 0 -145 46.5t-50 149.5v353h107v-337q0 -63 26.5 -94t82.5 -31q83 0 115 48.5t32 140.5v273h106zM316 606q-51 0 -82 28.5t-31 80.5q0 50 31 79t82 29q48 0 81 -28.5t33 -78.5q0 -52 -32.5 -81t-81.5 -29z
M316 661q23 0 38 14.5t15 39.5t-15 39t-38 14t-38.5 -14t-15.5 -39q0 -54 54 -54z" />
    <glyph glyph-name="Uhungarumlaut" unicode="&#x170;" horiz-adv-x="738" 
d="M649 714v-462q0 -74 -30.5 -133.5t-93.5 -94t-159 -34.5q-136 0 -206.5 72.5t-70.5 191.5v460h108v-455q0 -177 174 -177q90 0 130.5 48t40.5 130v454h107zM622 941v-10q-10 -18 -35.5 -46.5t-54.5 -57t-52 -46.5h-59v12q14 19 30.5 45t32.5 53.5t27 49.5h111zM440 941
v-10q-10 -18 -35 -46.5t-54 -57t-52 -46.5h-59v12q14 19 30.5 45t32 53.5t26.5 49.5h111z" />
    <glyph glyph-name="uhungarumlaut" unicode="&#x171;" horiz-adv-x="630" 
d="M547 539v-539h-85l-15 71h-5q-26 -42 -72 -61.5t-97 -19.5q-95 0 -145 46.5t-50 149.5v353h107v-337q0 -63 26.5 -94t82.5 -31q83 0 115 48.5t32 140.5v273h106zM567 766v-10q-10 -18 -35.5 -46.5t-54.5 -57t-52 -46.5h-59v12q14 19 30.5 45t32.5 53.5t27 49.5h111z
M385 766v-10q-10 -18 -35 -46.5t-54 -57t-52 -46.5h-59v12q14 19 30.5 45t32 53.5t26.5 49.5h111z" />
    <glyph glyph-name="Uogonek" unicode="&#x172;" horiz-adv-x="738" 
d="M472 -105q0 -28 12 -40.5t31 -12.5q17 0 29.5 2.5t20.5 4.5v-65q-14 -4 -29.5 -7t-36.5 -3q-109 0 -109 108q0 31 15 60.5t36 54.5q-35 -7 -75 -7q-136 0 -206.5 72.5t-70.5 191.5v460h108v-455q0 -177 174 -177q90 0 130.5 48t40.5 130v454h107v-462q0 -63 -22.5 -116.5
t-68.5 -89.5q-45 -48 -65.5 -83t-20.5 -68z" />
    <glyph glyph-name="uogonek" unicode="&#x173;" horiz-adv-x="630" 
d="M547 539v-539h-85l-15 71h-5q-26 -42 -72 -61.5t-97 -19.5q-95 0 -145 46.5t-50 149.5v353h107v-337q0 -63 26.5 -94t82.5 -31q83 0 115 48.5t32 140.5v273h106zM456 -115q0 -22 11.5 -32.5t31.5 -10.5q16 0 29 2.5t22 4.5v-65q-15 -4 -30.5 -7t-35.5 -3q-55 0 -82 26.5
t-27 72.5q0 29 14.5 56t37 49.5t45.5 37.5l53 -16q-34 -32 -51.5 -59t-17.5 -56z" />
    <glyph glyph-name="Wcircumflex" unicode="&#x174;" horiz-adv-x="941" 
d="M932 714l-188 -714h-115l-126 441q-7 24 -14.5 54t-13.5 56.5t-8 37.5q-1 -11 -6 -37t-12 -57t-15 -57l-124 -438h-115l-187 714h111l105 -422q10 -44 19.5 -91t14.5 -84q5 38 15.5 87t21.5 88l119 422h108l123 -424q12 -40 22 -89t15 -84q4 37 14 84t21 91l105 422h110z
M529 941q13 -22 35.5 -49.5t46.5 -54t43 -44.5v-12h-73q-26 16 -55 39t-55 50q-27 -27 -54.5 -50t-53.5 -39h-72v12q18 19 42 45t46 53.5t36 49.5h114z" />
    <glyph glyph-name="wcircumflex" unicode="&#x175;" horiz-adv-x="807" 
d="M524 1l-77 269q-7 26 -16 59.5t-16 64t-11 47.5h-4q-3 -17 -10 -47.5t-15.5 -64t-16.5 -60.5l-80 -268h-118l-149 539h108l70 -273q11 -42 20.5 -89.5t13.5 -76.5h4q3 17 8.5 45.5t12 56.5t12.5 46l86 291h116l84 -291q6 -20 13 -47.5t12.5 -54.5t7.5 -45h4q2 16 7 44
t12.5 60t14.5 61l72 273h107l-151 -539h-121zM461 766q13 -22 35.5 -49.5t46.5 -54t43 -44.5v-12h-73q-26 16 -55 39t-55 50q-27 -27 -54.5 -50t-53.5 -39h-72v12q18 19 42 45t46 53.5t36 49.5h114z" />
    <glyph glyph-name="Ycircumflex" unicode="&#x176;" horiz-adv-x="583" 
d="M292 380l175 334h116l-238 -437v-277h-107v273l-238 441h117zM350 941q13 -22 35.5 -49.5t46.5 -54t43 -44.5v-12h-73q-26 16 -55 39t-55 50q-27 -27 -54.5 -50t-53.5 -39h-72v12q18 19 42 45t46 53.5t36 49.5h114z" />
    <glyph glyph-name="ycircumflex" unicode="&#x177;" horiz-adv-x="527" 
d="M1 539h114l112 -306q13 -35 23 -67t14 -64h4q5 26 15.5 61t23.5 71l106 305h114l-231 -612q-29 -78 -77.5 -122.5t-126.5 -44.5q-25 0 -43 2.5t-31 5.5v84q10 -2 26 -4t33 -2q46 0 74 26.5t44 69.5l22 58zM322 766q13 -22 35.5 -49.5t46.5 -54t43 -44.5v-12h-73
q-26 16 -55 39t-55 50q-27 -27 -54.5 -50t-53.5 -39h-72v12q18 19 42 45t46 53.5t36 49.5h114z" />
    <glyph glyph-name="Ydieresis" unicode="&#x178;" horiz-adv-x="583" 
d="M292 380l175 334h116l-238 -437v-277h-107v273l-238 441h117zM142 857q0 29 15.5 41.5t37.5 12.5t38 -12.5t16 -41.5q0 -27 -16 -40.5t-38 -13.5t-37.5 13.5t-15.5 40.5zM333 857q0 29 15 41.5t38 12.5q21 0 37 -12.5t16 -41.5q0 -27 -16 -40.5t-37 -13.5q-23 0 -38 13.5
t-15 40.5z" />
    <glyph glyph-name="Zacute" unicode="&#x179;" horiz-adv-x="574" 
d="M539 0h-505v77l366 544h-355v93h485v-77l-366 -544h375v-93zM448 941v-10q-15 -18 -42.5 -46.5t-58 -57t-54.5 -46.5h-70v12q15 18 34 44.5t36.5 54t30.5 49.5h124z" />
    <glyph glyph-name="zacute" unicode="&#x17a;" horiz-adv-x="475" 
d="M439 0h-404v67l278 390h-261v82h379v-75l-272 -382h280v-82zM394 766v-10q-15 -18 -42.5 -46.5t-58 -57t-54.5 -46.5h-70v12q15 18 34 44.5t36.5 54t30.5 49.5h124z" />
    <glyph glyph-name="Zdotaccent" unicode="&#x17b;" horiz-adv-x="574" 
d="M539 0h-505v77l366 544h-355v93h485v-77l-366 -544h375v-93zM295 919q24 0 41.5 -14t17.5 -47q0 -32 -17.5 -46.5t-41.5 -14.5q-25 0 -43 14.5t-18 46.5q0 33 18 47t43 14z" />
    <glyph glyph-name="zdotaccent" unicode="&#x17c;" horiz-adv-x="475" 
d="M439 0h-404v67l278 390h-261v82h379v-75l-272 -382h280v-82zM241 744q24 0 41.5 -14t17.5 -47q0 -32 -17.5 -46.5t-41.5 -14.5q-25 0 -43 14.5t-18 46.5q0 33 18 47t43 14z" />
    <glyph glyph-name="Zcaron" unicode="&#x17d;" horiz-adv-x="574" 
d="M539 0h-505v77l366 544h-355v93h485v-77l-366 -544h375v-93zM234 781q-14 22 -36 49t-46 53t-42 45v13h72q26 -17 54 -40t54 -50q26 27 55 50.5t55 39.5h73v-13q-19 -19 -43 -44.5t-46.5 -53t-35.5 -49.5h-114z" />
    <glyph glyph-name="zcaron" unicode="&#x17e;" horiz-adv-x="475" 
d="M439 0h-404v67l278 390h-261v82h379v-75l-272 -382h280v-82zM181 606q-14 22 -36 49t-46 53t-42 45v13h72q26 -17 54 -40t54 -50q26 27 55 50.5t55 39.5h73v-13q-19 -19 -43 -44.5t-46.5 -53t-35.5 -49.5h-114z" />
    <glyph glyph-name="longs" unicode="&#x17f;" horiz-adv-x="343" 
d="M269 679q-39 0 -59.5 -24t-20.5 -77v-578h-106v580q0 103 49.5 144t131.5 41q36 0 63.5 -6.5t47.5 -13.5l-27 -81q-16 5 -36.5 10t-42.5 5z" />
    <glyph glyph-name="florin" unicode="&#x192;" horiz-adv-x="572" 
d="M403 724q36 0 63.5 -7t47.5 -15l-26 -80q-16 5 -35 10.5t-41 5.5q-39 0 -57 -22t-18 -74v-59h128v-81h-126v-465q0 -91 -42.5 -134t-128.5 -43q-42 0 -74 10v86q15 -4 29.5 -6.5t31.5 -2.5q37 0 56.5 20.5t19.5 76.5v458h-98v50l98 33v58q0 69 20.5 108.5t59 56
t92.5 16.5z" />
    <glyph glyph-name="Aringacute" unicode="&#x1fa;" horiz-adv-x="655" 
d="M275 837v9q21 22 45 54t40 58h124v-7q-10 -14 -34.5 -35.5t-53 -43t-50.5 -35.5h-71zM0 0l254 618q-41 28 -41 84q0 52 31.5 80.5t81.5 28.5q48 0 81.5 -28.5t33.5 -79.5q0 -29 -11 -50t-29 -34l254 -619h-114l-73 183h-285l-70 -183h-113zM326 649q24 0 38.5 13.5
t14.5 39.5t-15 40t-38 14t-38.5 -14t-15.5 -40q0 -25 14 -39t40 -14zM215 277h225l-73 187q-8 20 -20.5 54.5t-19.5 60.5q-5 -17 -12.5 -40t-15 -44t-11.5 -32z" />
    <glyph glyph-name="aringacute" unicode="&#x1fb;" horiz-adv-x="574" 
d="M457 958v-6q-11 -12 -39 -30t-60 -36t-54 -30h-74v8q21 19 45 45.5t40 48.5h142zM291 817q49 0 82 -28.5t33 -78.5q0 -52 -33 -81t-82 -29q-50 0 -81 28.5t-31 80.5q0 51 31 79.5t81 28.5zM291 762q-23 0 -38 -14t-15 -39t14 -39.5t39 -14.5q23 0 38.5 14.5t15.5 39.5
t-15.5 39t-38.5 14zM292 549q101 0 151.5 -44.5t50.5 -139.5v-365h-75l-21 75h-4q-35 -44 -73.5 -64.5t-106.5 -20.5q-73 0 -121 39.5t-48 123.5q0 83 62.5 125.5t190.5 46.5l92 3v30q0 59 -27 83.5t-76 24.5q-41 0 -79 -12t-73 -29l-34 77q38 20 87.5 33.5t103.5 13.5z
M389 259l-72 -2q-92 -4 -127.5 -31t-35.5 -74q0 -42 25 -61t65 -19q62 0 103.5 35t41.5 105v47z" />
    <glyph glyph-name="AEacute" unicode="&#x1fc;" horiz-adv-x="902" 
d="M842 0h-388v206h-247l-97 -206h-111l334 714h509v-92h-280v-204h262v-91h-262v-234h280v-93zM248 300h206v320h-59zM653 941v-10q-15 -18 -42.5 -46.5t-58 -57t-54.5 -46.5h-70v12q15 18 34 44.5t36.5 54t30.5 49.5h124z" />
    <glyph glyph-name="aeacute" unicode="&#x1fd;" horiz-adv-x="880" 
d="M614 549q66 0 115 -30t75.5 -84.5t26.5 -127.5v-60h-346q2 -86 40.5 -128.5t108.5 -42.5q50 0 90 9.5t81 28.5v-88q-41 -19 -80.5 -27.5t-94.5 -8.5q-68 0 -121 27.5t-85 81.5q-38 -52 -83 -80.5t-125 -28.5q-48 0 -87 17.5t-61.5 53.5t-22.5 92q0 165 241 172l91 3v36
q0 56 -28 79t-75 23q-39 0 -77 -12t-72 -28l-33 76q38 20 88 33.5t102 13.5q120 0 165 -80q28 38 69.5 59t97.5 21zM613 467q-55 0 -88 -36t-38 -106h237q0 63 -27.5 102.5t-83.5 39.5zM376 259l-69 -2q-86 -4 -119.5 -31t-33.5 -74q0 -42 23.5 -61t62.5 -19q58 0 97 35
t39 105v47zM603 766v-10q-15 -18 -42.5 -46.5t-58 -57t-54.5 -46.5h-70v12q15 18 34 44.5t36.5 54t30.5 49.5h124z" />
    <glyph glyph-name="Oslashacute" unicode="&#x1fe;" horiz-adv-x="785" 
d="M725 358q0 -111 -37 -193.5t-111 -128.5t-184 -46q-107 0 -179 43l-47 -68l-66 44l50 72q-46 49 -68.5 119.5t-22.5 158.5q0 110 36 192.5t110 128t188 45.5q51 0 95 -11.5t80 -30.5l45 65l66 -44l-49 -69q47 -48 70.5 -118.5t23.5 -158.5zM174 358q0 -57 10 -103.5
t31 -80.5l298 427q-48 31 -119 31q-114 0 -167 -73t-53 -201zM611 358q0 117 -43 185l-297 -428q23 -16 54 -24.5t68 -8.5q114 0 166 74t52 202zM551 941v-10q-15 -18 -42.5 -46.5t-58 -57t-54.5 -46.5h-70v12q15 18 34 44.5t36.5 54t30.5 49.5h124z" />
    <glyph glyph-name="oslashacute" unicode="&#x1ff;" horiz-adv-x="609" 
d="M558 270q0 -134 -69 -207t-186 -73q-69 0 -125 30l-37 -54l-63 42l41 59q-32 36 -49.5 87t-17.5 116q0 134 68 206.5t186 72.5q36 0 68 -8.5t60 -24.5l36 51l63 -42l-40 -56q30 -36 47.5 -85.5t17.5 -113.5zM161 270q0 -34 4.5 -63t15.5 -51l200 285q-31 20 -77 20
q-75 0 -109 -49.5t-34 -141.5zM449 270q0 64 -18 108l-200 -283q30 -18 74 -18q75 0 109.5 51t34.5 142zM462 766v-10q-15 -18 -42.5 -46.5t-58 -57t-54.5 -46.5h-70v12q15 18 34 44.5t36.5 54t30.5 49.5h124z" />
    <glyph glyph-name="uni0218" unicode="&#x218;" horiz-adv-x="550" 
d="M505 193q0 -95 -69 -149t-189 -54q-59 0 -110 9.5t-87 27.5v102q40 -18 94 -32.5t110 -14.5q72 0 108 28t36 75q0 33 -16 55.5t-51.5 42t-92.5 41.5q-52 20 -93 47t-64 67t-23 98q0 88 64 138t168 50q58 0 107.5 -12t94.5 -31l-34 -89q-41 17 -83.5 28t-87.5 11
q-59 0 -90 -26t-31 -68q0 -33 15 -55.5t48 -41t87 -39.5q60 -24 102.5 -50.5t64.5 -64t22 -93.5zM330 -61v-9q-9 -29 -31 -72.5t-49 -78.5h-59v12q7 17 14.5 44t14 55t8.5 49h102z" />
    <glyph glyph-name="uni0219" unicode="&#x219;" horiz-adv-x="484" 
d="M441 152q0 -80 -57.5 -121t-161.5 -41q-57 0 -97.5 8t-74.5 25v93q35 -17 82.5 -30.5t92.5 -13.5q60 0 86.5 19t26.5 51q0 18 -10 32.5t-37.5 30t-80.5 35.5q-52 20 -87.5 41t-54.5 50t-19 73q0 70 56.5 107.5t149.5 37.5q49 0 92.5 -10t84.5 -28l-35 -81
q-35 15 -72 25.5t-75 10.5q-98 0 -98 -57q0 -19 11.5 -33t40 -28t79.5 -34q49 -19 84.5 -39.5t54.5 -49.5t19 -73zM312 -61v-9q-9 -29 -31 -72.5t-49 -78.5h-59v12q7 17 14.5 44t14 55t8.5 49h102z" />
    <glyph glyph-name="circumflex" unicode="&#x2c6;" horiz-adv-x="443" 
d="M278 766q13 -22 35.5 -49.5t46.5 -54t43 -44.5v-12h-73q-26 16 -55 39t-55 50q-27 -27 -54.5 -50t-53.5 -39h-72v12q18 19 42 45t46 53.5t36 49.5h114z" />
    <glyph glyph-name="caron" unicode="&#x2c7;" horiz-adv-x="443" 
d="M164 606q-14 22 -36 49t-46 53t-42 45v13h72q26 -17 54 -40t54 -50q26 27 55 50.5t55 39.5h73v-13q-19 -19 -43 -44.5t-46.5 -53t-35.5 -49.5h-114z" />
    <glyph glyph-name="macron" unicode="&#x2c9;" horiz-adv-x="387" 
d="M347 686v-80h-307v80h307z" />
    <glyph glyph-name="breve" unicode="&#x2d8;" horiz-adv-x="413" 
d="M373 749q-5 -64 -49.5 -103.5t-119.5 -39.5q-78 0 -119 39t-45 104h63q4 -41 31 -51.5t72 -10.5q38 0 68 11.5t35 50.5h64z" />
    <glyph glyph-name="dotaccent" unicode="&#x2d9;" horiz-adv-x="200" 
d="M101 744q24 0 41.5 -14t17.5 -47q0 -32 -17.5 -46.5t-41.5 -14.5q-25 0 -43 14.5t-18 46.5q0 33 18 47t43 14z" />
    <glyph glyph-name="ring" unicode="&#x2da;" horiz-adv-x="307" 
d="M153 606q-51 0 -82 28.5t-31 80.5q0 50 31 79t82 29q48 0 81 -28.5t33 -78.5q0 -52 -32.5 -81t-81.5 -29zM153 661q23 0 38 14.5t15 39.5t-15 39t-38 14t-38.5 -14t-15.5 -39q0 -54 54 -54z" />
    <glyph glyph-name="ogonek" unicode="&#x2db;" horiz-adv-x="255" 
d="M121 -115q0 -22 11.5 -32.5t31.5 -10.5q16 0 29 2.5t22 4.5v-65q-15 -4 -30.5 -7t-35.5 -3q-55 0 -82 26.5t-27 72.5q0 29 14.5 56t37 49.5t45.5 37.5l53 -16q-34 -32 -51.5 -59t-17.5 -56z" />
    <glyph glyph-name="tilde" unicode="&#x2dc;" horiz-adv-x="458" 
d="M40 606q6 64 37 99t80 35q29 0 55 -14t50 -27.5t46 -13.5q39 0 53 56h57q-6 -64 -36.5 -99t-79.5 -35q-28 0 -54 13.5t-50 27.5t-47 14q-41 0 -54 -56h-57z" />
    <glyph glyph-name="hungarumlaut" unicode="&#x2dd;" horiz-adv-x="462" 
d="M422 766v-10q-10 -18 -35.5 -46.5t-54.5 -57t-52 -46.5h-59v12q14 19 30.5 45t32.5 53.5t27 49.5h111zM240 766v-10q-10 -18 -35 -46.5t-54 -57t-52 -46.5h-59v12q14 19 30.5 45t32 53.5t26.5 49.5h111z" />
    <glyph glyph-name="tonos" unicode="&#x384;" horiz-adv-x="577" 
d="M248 606v14q8 24 17 56.5t16 66t10 59.5h107v-11q-7 -23 -20.5 -55t-31 -66.5t-35.5 -63.5h-63z" />
    <glyph glyph-name="dieresistonos" unicode="&#x385;" horiz-adv-x="577" 
d="M398 838v-10q-16 -32 -42 -73t-55 -77h-49v12q10 30 22 72t18 76h106zM178 736q21 0 36 -12.5t15 -41.5q0 -27 -15 -40.5t-36 -13.5q-22 0 -37 13.5t-15 40.5q0 29 15 41.5t37 12.5zM411 736q21 0 36 -12.5t15 -41.5q0 -27 -15 -40.5t-36 -13.5q-23 0 -37 13.5t-14 40.5
q0 29 14 41.5t37 12.5z" />
    <glyph glyph-name="Alphatonos" unicode="&#x386;" horiz-adv-x="660" 
d="M546 0l-76 206h-276l-76 -206h-112l271 717h112l270 -717h-113zM440 300l-72 201q-4 11 -11 33t-14 46t-11 39q-8 -31 -18 -66t-16 -52l-72 -201h214zM10 555v14q8 24 17 56.5t16 66t10 59.5h107v-11q-7 -23 -20.5 -55t-31 -66.5t-35.5 -63.5h-63z" />
    <glyph glyph-name="anoteleia" unicode="&#x387;" horiz-adv-x="273" 
d="M68 480q0 39 20 55t48 16t48.5 -16t20.5 -55t-20.5 -56t-48.5 -17t-48 17t-20 56z" />
    <glyph glyph-name="Epsilontonos" unicode="&#x388;" horiz-adv-x="651" 
d="M591 0h-402v714h402v-92h-294v-204h276v-91h-276v-234h294v-93zM0 555v14q8 24 17 56.5t16 66t10 59.5h107v-11q-7 -23 -20.5 -55t-31 -66.5t-35.5 -63.5h-63z" />
    <glyph glyph-name="Etatonos" unicode="&#x389;" horiz-adv-x="842" 
d="M746 0h-108v326h-341v-326h-108v714h108v-296h341v296h108v-714zM0 555v14q8 24 17 56.5t16 66t10 59.5h107v-11q-7 -23 -20.5 -55t-31 -66.5t-35.5 -63.5h-63z" />
    <glyph glyph-name="Iotatonos" unicode="&#x38a;" horiz-adv-x="490" 
d="M452 0h-277v62l85 25v539l-85 26v62h277v-62l-84 -26v-539l84 -25v-62zM0 555v14q8 24 17 56.5t16 66t10 59.5h107v-11q-7 -23 -20.5 -55t-31 -66.5t-35.5 -63.5h-63z" />
    <glyph glyph-name="Omicrontonos" unicode="&#x38c;" horiz-adv-x="836" 
d="M775 358q0 -111 -37 -193.5t-111 -128.5t-184 -46q-113 0 -187 46t-110 129t-36 194q0 110 36 192.5t110 128t188 45.5q110 0 183.5 -45.5t110.5 -128t37 -193.5zM224 358q0 -128 53 -202t166 -74q114 0 166 74t52 202t-52 201t-165 73q-114 0 -167 -73t-53 -201zM0 555
v14q8 24 17 56.5t16 66t10 59.5h107v-11q-7 -23 -20.5 -55t-31 -66.5t-35.5 -63.5h-63z" />
    <glyph glyph-name="Upsilontonos" unicode="&#x38e;" horiz-adv-x="748" 
d="M457 380l175 334h116l-238 -437v-277h-107v273l-238 441h117zM0 555v14q8 24 17 56.5t16 66t10 59.5h107v-11q-7 -23 -20.5 -55t-31 -66.5t-35.5 -63.5h-63z" />
    <glyph glyph-name="Omegatonos" unicode="&#x38f;" horiz-adv-x="833" 
d="M441 632q-110 0 -164 -61.5t-54 -171.5q0 -96 34 -172.5t122 -135.5v-91h-295v93h179q-66 47 -109.5 128t-43.5 189q0 96 39 167t113.5 109.5t178.5 38.5q106 0 179.5 -38.5t112.5 -109t39 -166.5q0 -109 -43 -190t-110 -128h179v-93h-296v91q88 58 123 135.5t35 172.5
q0 110 -54.5 171.5t-164.5 61.5zM-5 555v14q8 24 17 56.5t16 66t10 59.5h107v-11q-7 -23 -20.5 -55t-31 -66.5t-35.5 -63.5h-63z" />
    <glyph glyph-name="iotadieresistonos" unicode="&#x390;" horiz-adv-x="364" 
d="M186 539v-377q0 -86 74 -86q22 0 45.5 4t39.5 9v-80q-17 -8 -45.5 -13.5t-58.5 -5.5q-46 0 -82 15t-57 52t-21 104v378h105zM248 838v-10q-16 -32 -42 -73t-55 -77h-49v12q10 30 22 72t18 76h106zM28 736q21 0 36 -12.5t15 -41.5q0 -27 -15 -40.5t-36 -13.5
q-22 0 -37 13.5t-15 40.5q0 29 15 41.5t37 12.5zM261 736q21 0 36 -12.5t15 -41.5q0 -27 -15 -40.5t-36 -13.5q-23 0 -37 13.5t-14 40.5q0 29 14 41.5t37 12.5z" />
    <glyph glyph-name="Alpha" unicode="&#x391;" horiz-adv-x="654" 
d="M540 0l-76 206h-276l-76 -206h-112l271 717h112l270 -717h-113zM434 300l-72 201q-4 11 -11 33t-14 46t-11 39q-8 -31 -18 -66t-16 -52l-72 -201h214z" />
    <glyph glyph-name="Beta" unicode="&#x392;" horiz-adv-x="656" 
d="M95 714h209q136 0 206.5 -40t70.5 -138q0 -62 -33.5 -104t-95.5 -53v-5q42 -8 76.5 -26.5t54.5 -53t20 -90.5q0 -98 -68 -151t-184 -53h-256v714zM203 416h119q84 0 115.5 27t31.5 80t-38.5 76.5t-120.5 23.5h-107v-207zM203 328v-238h131q86 0 120.5 34t34.5 90
q0 51 -35.5 82.5t-126.5 31.5h-124z" />
    <glyph glyph-name="Gamma" unicode="&#x393;" horiz-adv-x="535" 
d="M512 714v-93h-309v-621h-108v714h417z" />
    <glyph glyph-name="uni0394" unicode="&#x394;" horiz-adv-x="604" 
d="M359 715l222 -652v-63h-559v64l223 651h114zM466 93l-124 373q-12 34 -23.5 74.5t-17.5 68.5q-7 -28 -18 -68t-22 -73l-126 -375h331z" />
    <glyph glyph-name="Epsilon" unicode="&#x395;" horiz-adv-x="557" 
d="M497 0h-402v714h402v-92h-294v-204h276v-91h-276v-234h294v-93z" />
    <glyph glyph-name="Zeta" unicode="&#x396;" horiz-adv-x="574" 
d="M539 0h-505v77l366 544h-355v93h485v-77l-366 -544h375v-93z" />
    <glyph glyph-name="Eta" unicode="&#x397;" horiz-adv-x="748" 
d="M652 0h-108v326h-341v-326h-108v714h108v-296h341v296h108v-714z" />
    <glyph glyph-name="Theta" unicode="&#x398;" horiz-adv-x="785" 
d="M725 358q0 -111 -37 -193.5t-111 -128.5t-184 -46q-113 0 -187 46t-110 129t-36 194q0 110 36 192.5t110 128t188 45.5q110 0 183.5 -45.5t110.5 -128t37 -193.5zM174 358q0 -128 53 -202t166 -74q114 0 166 74t52 202t-52 201t-165 73q-114 0 -167 -73t-53 -201z
M536 409v-92h-288v92h288z" />
    <glyph glyph-name="Iota" unicode="&#x399;" horiz-adv-x="354" 
d="M315 0h-277v62l85 25v539l-85 26v62h277v-62l-84 -26v-539l84 -25v-62z" />
    <glyph glyph-name="Kappa" unicode="&#x39a;" horiz-adv-x="632" 
d="M632 0h-125l-234 329l-70 -58v-271h-108v714h108v-345q25 30 52 60t52 61l193 224h124l-273 -312z" />
    <glyph glyph-name="Lambda" unicode="&#x39b;" horiz-adv-x="620" 
d="M367 714l253 -714h-112l-151 444q-13 39 -27 84t-21 79q-7 -34 -20 -79.5t-26 -83.5l-151 -444h-112l252 714h115z" />
    <glyph glyph-name="Mu" unicode="&#x39c;" horiz-adv-x="918" 
d="M406 0l-216 607h-4q2 -21 3.5 -54.5t2.5 -73t1 -76.5v-403h-98v714h154l205 -573h4l211 573h154v-714h-105v409q0 35 1.5 72t3 70l2.5 55h-4l-222 -606h-93z" />
    <glyph glyph-name="Nu" unicode="&#x39d;" horiz-adv-x="776" 
d="M681 0h-131l-361 577h-4q2 -40 4.5 -91.5t3.5 -105.5v-380h-98v714h130l360 -574h3q-1 21 -2.5 53t-2.5 68.5t-2 68.5v384h100v-714z" />
    <glyph glyph-name="Xi" unicode="&#x39e;" horiz-adv-x="560" 
d="M56 622v92h447v-92h-447zM96 327v91h367v-91h-367zM36 0v93h487v-93h-487z" />
    <glyph glyph-name="Omicron" unicode="&#x39f;" horiz-adv-x="785" 
d="M725 358q0 -111 -37 -193.5t-111 -128.5t-184 -46q-113 0 -187 46t-110 129t-36 194q0 110 36 192.5t110 128t188 45.5q110 0 183.5 -45.5t110.5 -128t37 -193.5zM174 358q0 -128 53 -202t166 -74q114 0 166 74t52 202t-52 201t-165 73q-114 0 -167 -73t-53 -201z" />
    <glyph glyph-name="Pi" unicode="&#x3a0;" horiz-adv-x="735" 
d="M95 0v714h544v-714h-107v621h-329v-621h-108z" />
    <glyph glyph-name="Rho" unicode="&#x3a1;" horiz-adv-x="612" 
d="M295 714q140 0 204 -56.5t64 -157.5q0 -60 -26.5 -112t-88.5 -84.5t-168 -32.5h-77v-271h-108v714h200zM287 623h-84v-261h65q91 0 137.5 30.5t46.5 103.5q0 64 -40 95.5t-125 31.5z" />
    <glyph glyph-name="Sigma" unicode="&#x3a3;" horiz-adv-x="577" 
d="M37 0v87l232 286l-226 254v87h478v-93h-243h-38t-43 0.5t-34 1.5l224 -249l-235 -284l74 2t75 1h249v-93h-513z" />
    <glyph glyph-name="Tau" unicode="&#x3a4;" horiz-adv-x="563" 
d="M335 0h-108v621h-214v93h536v-93h-214v-621z" />
    <glyph glyph-name="Upsilon" unicode="&#x3a5;" horiz-adv-x="583" 
d="M292 380l175 334h116l-238 -437v-277h-107v273l-238 441h117z" />
    <glyph glyph-name="Phi" unicode="&#x3a6;" horiz-adv-x="821" 
d="M461 724v-88q117 -2 184.5 -39t96.5 -96t29 -131q0 -48 -15 -95t-50.5 -86t-95 -63t-149.5 -26v-110h-103v110q-91 2 -151 27t-94.5 64.5t-49 86t-14.5 92.5q0 70 29.5 129.5t97 97t182.5 39.5v88h103zM358 548q-76 -2 -120 -25t-63.5 -62t-19.5 -90q0 -83 48.5 -131.5
t154.5 -52.5v361zM461 548v-361q109 4 156.5 53.5t47.5 130.5q0 52 -19.5 91t-64 61.5t-120.5 24.5z" />
    <glyph glyph-name="Chi" unicode="&#x3a7;" horiz-adv-x="610" 
d="M607 0h-123l-182 298l-184 -298h-115l237 371l-222 343h120l168 -273l169 273h115l-222 -344z" />
    <glyph glyph-name="Psi" unicode="&#x3a8;" horiz-adv-x="825" 
d="M772 714v-235q0 -55 -15 -103t-50 -84t-94.5 -56t-149.5 -20v-216h-102v216q-91 0 -150.5 20.5t-94 56.5t-49 83.5t-14.5 101.5v236h105v-234q0 -92 49 -133t154 -41v408h102v-408q104 0 153 41t49 131v236h107z" />
    <glyph glyph-name="uni03A9" unicode="&#x3a9;" horiz-adv-x="783" 
d="M392 632q-110 0 -164 -61.5t-54 -171.5q0 -96 34 -172.5t122 -135.5v-91h-295v93h179q-66 47 -109.5 128t-43.5 189q0 96 39 167t113.5 109.5t178.5 38.5q106 0 179.5 -38.5t112.5 -109t39 -166.5q0 -109 -43 -190t-110 -128h179v-93h-296v91q88 58 123 135.5t35 172.5
q0 110 -54.5 171.5t-164.5 61.5z" />
    <glyph glyph-name="Iotadieresis" unicode="&#x3aa;" horiz-adv-x="354" 
d="M315 0h-277v62l85 25v539l-85 26v62h277v-62l-84 -26v-539l84 -25v-62zM28 857q0 29 15.5 41.5t37.5 12.5t38 -12.5t16 -41.5q0 -27 -16 -40.5t-38 -13.5t-37.5 13.5t-15.5 40.5zM219 857q0 29 15 41.5t38 12.5q21 0 37 -12.5t16 -41.5q0 -27 -16 -40.5t-37 -13.5
q-23 0 -38 13.5t-15 40.5z" />
    <glyph glyph-name="Upsilondieresis" unicode="&#x3ab;" horiz-adv-x="583" 
d="M292 380l175 334h116l-238 -437v-277h-107v273l-238 441h117zM142 857q0 29 15.5 41.5t37.5 12.5t38 -12.5t16 -41.5q0 -27 -16 -40.5t-38 -13.5t-37.5 13.5t-15.5 40.5zM333 857q0 29 15 41.5t38 12.5q21 0 37 -12.5t16 -41.5q0 -27 -16 -40.5t-37 -13.5q-23 0 -38 13.5
t-15 40.5z" />
    <glyph glyph-name="alphatonos" unicode="&#x3ac;" horiz-adv-x="624" 
d="M270 -10q-98 0 -158 70t-60 207t60 209.5t167 72.5q59 0 98 -20.5t64 -61.5h6q5 17 13 37t20 35h85q-7 -22 -13.5 -57.5t-10.5 -76.5t-4 -79v-192q0 -32 12 -44t29 -12q7 0 16 2t13 3v-80q-7 -5 -25 -9t-34 -4q-40 0 -66 18t-39 64h-8q-23 -34 -61 -58t-104 -24zM294 77
q76 0 108 44.5t32 140.5v6q0 94 -30 143.5t-111 49.5q-67 0 -99.5 -49.5t-32.5 -145.5q0 -94 32 -141.5t101 -47.5zM270 606v14q8 24 17 56.5t16 66t10 59.5h107v-11q-7 -23 -20.5 -55t-31 -66.5t-35.5 -63.5h-63z" />
    <glyph glyph-name="epsilontonos" unicode="&#x3ad;" horiz-adv-x="504" 
d="M371 321v-81h-75q-77 0 -113 -21.5t-36 -63.5q0 -43 37.5 -61.5t101.5 -18.5q57 0 102.5 13t79.5 29v-90q-33 -17 -79.5 -27t-109.5 -10q-122 0 -179.5 44.5t-57.5 112.5q0 60 35.5 89t87.5 42v5q-47 13 -74.5 44t-27.5 80q0 47 28 78.5t77 47.5t111 16q58 0 103.5 -10.5
t86.5 -28.5l-36 -81q-35 15 -70.5 25.5t-83.5 10.5q-117 0 -117 -69q0 -40 39 -57.5t109 -17.5h61zM238 606v14q8 24 17 56.5t16 66t10 59.5h107v-11q-7 -23 -20.5 -55t-31 -66.5t-35.5 -63.5h-63z" />
    <glyph glyph-name="etatonos" unicode="&#x3ae;" horiz-adv-x="630" 
d="M356 549q94 0 144 -47t50 -151v-591h-105v576q0 62 -26.5 94t-84.5 32q-82 0 -113.5 -49t-31.5 -141v-272h-106v539h84l15 -72h6q26 42 71.5 62t96.5 20zM287 606v14q8 24 17 56.5t16 66t10 59.5h107v-11q-7 -23 -20.5 -55t-31 -66.5t-35.5 -63.5h-63z" />
    <glyph glyph-name="iotatonos" unicode="&#x3af;" horiz-adv-x="364" 
d="M186 539v-377q0 -86 74 -86q22 0 45.5 4t39.5 9v-80q-17 -8 -45.5 -13.5t-58.5 -5.5q-46 0 -82 15t-57 52t-21 104v378h105zM96 606v14q8 24 17 56.5t16 66t10 59.5h107v-11q-7 -23 -20.5 -55t-31 -66.5t-35.5 -63.5h-63z" />
    <glyph glyph-name="upsilondieresistonos" unicode="&#x3b0;" horiz-adv-x="622" 
d="M311 -10q-91 0 -142.5 34t-72 91.5t-20.5 129.5v294h106v-294q0 -81 32.5 -125t103.5 -44q73 0 108.5 53t35.5 168q0 68 -8.5 124.5t-23.5 117.5h106q16 -61 24.5 -117t8.5 -129q0 -156 -65.5 -229.5t-192.5 -73.5zM419 838v-10q-16 -32 -42 -73t-55 -77h-49v12
q10 30 22 72t18 76h106zM199 736q21 0 36 -12.5t15 -41.5q0 -27 -15 -40.5t-36 -13.5q-22 0 -37 13.5t-15 40.5q0 29 15 41.5t37 12.5zM432 736q21 0 36 -12.5t15 -41.5q0 -27 -15 -40.5t-36 -13.5q-23 0 -37 13.5t-14 40.5q0 29 14 41.5t37 12.5z" />
    <glyph glyph-name="alpha" unicode="&#x3b1;" horiz-adv-x="624" 
d="M270 -10q-98 0 -158 70t-60 207t60 209.5t167 72.5q59 0 98 -20.5t64 -61.5h6q5 17 13 37t20 35h85q-7 -22 -13.5 -57.5t-10.5 -76.5t-4 -79v-192q0 -32 12 -44t29 -12q7 0 16 2t13 3v-80q-7 -5 -25 -9t-34 -4q-40 0 -66 18t-39 64h-8q-23 -34 -61 -58t-104 -24zM294 77
q76 0 108 44.5t32 140.5v6q0 94 -30 143.5t-111 49.5q-67 0 -99.5 -49.5t-32.5 -145.5q0 -94 32 -141.5t101 -47.5z" />
    <glyph glyph-name="beta" unicode="&#x3b2;" horiz-adv-x="640" 
d="M328 765q68 0 121.5 -21.5t83.5 -63.5t30 -106q0 -72 -38.5 -114.5t-110.5 -53.5v-4q89 -10 136.5 -58t47.5 -139q0 -103 -65 -159t-178 -56q-55 0 -95 8.5t-71 24.5v-263h-106v775q0 81 32 131.5t87.5 74.5t125.5 24zM326 679q-37 0 -68 -13t-50 -46t-19 -92v-413
q31 -17 68 -28t81 -11q80 0 116 36t36 101q0 74 -45 107t-115 33h-48v87h38q70 0 103 34.5t33 91.5t-36 85t-94 28z" />
    <glyph glyph-name="gamma" unicode="&#x3b3;" horiz-adv-x="533" 
d="M529 539l-199 -527q-16 -40 -26.5 -86t-16.5 -89t-6 -77h-113q0 28 6.5 70t18 88.5t25.5 87.5l-214 533h110l103 -269q10 -26 21 -60t19.5 -64t11.5 -48h4q3 16 11 46t18 63t19 58l98 274h110z" />
    <glyph glyph-name="delta" unicode="&#x3b4;" horiz-adv-x="608" 
d="M326 761q69 0 118.5 -16t93.5 -38l-45 -79q-39 21 -81 35.5t-91 14.5q-43 0 -62.5 -19t-19.5 -44q0 -33 31 -59.5t103 -65.5q91 -48 137.5 -106.5t46.5 -143.5q0 -124 -69.5 -187t-185.5 -63q-73 0 -129.5 26t-89 76t-32.5 122q0 66 27 113t73.5 78.5t103.5 48.5
q-53 31 -87 70.5t-34 94.5q0 70 54 106t138 36zM330 409q-36 -9 -75.5 -30.5t-66.5 -61t-27 -102.5q0 -61 37 -99.5t104 -38.5q70 0 108 41t38 118q0 63 -31.5 103.5t-86.5 69.5z" />
    <glyph glyph-name="epsilon" unicode="&#x3b5;" horiz-adv-x="504" 
d="M371 321v-81h-75q-77 0 -113 -21.5t-36 -63.5q0 -43 37.5 -61.5t101.5 -18.5q57 0 102.5 13t79.5 29v-90q-33 -17 -79.5 -27t-109.5 -10q-122 0 -179.5 44.5t-57.5 112.5q0 60 35.5 89t87.5 42v5q-47 13 -74.5 44t-27.5 80q0 47 28 78.5t77 47.5t111 16q58 0 103.5 -10.5
t86.5 -28.5l-36 -81q-35 15 -70.5 25.5t-83.5 10.5q-117 0 -117 -69q0 -40 39 -57.5t109 -17.5h61z" />
    <glyph glyph-name="zeta" unicode="&#x3b6;" horiz-adv-x="488" 
d="M468 -34q0 -44 -20 -85t-45 -73h-105q26 34 45.5 71.5t19.5 63.5q0 13 -7.5 23.5t-31.5 20t-72 18.5q-98 17 -149 69t-51 151q0 72 23.5 133t64.5 115.5t93.5 106t110.5 102.5q-6 -2 -28 -3t-51 -2t-57 -1h-127v84h386v-73q-102 -85 -163.5 -153t-92 -122.5t-40.5 -98.5
t-10 -82q0 -55 19 -82.5t55.5 -41t86.5 -23.5q80 -16 113 -45t33 -73z" />
    <glyph glyph-name="eta" unicode="&#x3b7;" horiz-adv-x="630" 
d="M356 549q94 0 144 -47t50 -151v-591h-105v576q0 62 -26.5 94t-84.5 32q-82 0 -113.5 -49t-31.5 -141v-272h-106v539h84l15 -72h6q26 42 71.5 62t96.5 20z" />
    <glyph glyph-name="theta" unicode="&#x3b8;" horiz-adv-x="602" 
d="M550 377q0 -121 -25 -207.5t-80 -133t-145 -46.5q-127 0 -187.5 103t-60.5 284q0 122 25 209t79.5 133t143.5 46q127 0 188.5 -101.5t61.5 -286.5zM300 682q-70 0 -103 -64t-37 -190h281q-5 126 -38 190t-103 64zM300 73q71 0 105 67t37 203h-282q2 -134 34 -202t106 -68
z" />
    <glyph glyph-name="iota" unicode="&#x3b9;" horiz-adv-x="364" 
d="M186 539v-377q0 -86 74 -86q22 0 45.5 4t39.5 9v-80q-17 -8 -45.5 -13.5t-58.5 -5.5q-46 0 -82 15t-57 52t-21 104v378h105z" />
    <glyph glyph-name="kappa" unicode="&#x3ba;" horiz-adv-x="559" 
d="M538 539l-207 -241l222 -298h-124l-169 232l-68 -51v-181h-109v539h109v-140q0 -37 -1.5 -73t-3.5 -58h2q12 15 24.5 30.5t23.5 29.5l179 211h122z" />
    <glyph glyph-name="lambda" unicode="&#x3bb;" horiz-adv-x="564" 
d="M-3 0l231 523l-24 66q-17 46 -38 67.5t-63 21.5q-17 0 -30 -2t-24 -4v86q13 3 33 5.5t38 2.5q55 0 89 -19t56.5 -56.5t43.5 -94.5l162 -451q13 -38 27 -52.5t33 -14.5q18 0 31 5v-80q-11 -5 -29.5 -9t-35.5 -4q-44 0 -68.5 22t-41.5 68l-65 184q-13 34 -27 76.5t-19 69.5
h-4q-8 -33 -21.5 -70.5t-28.5 -71.5l-115 -268h-110z" />
    <glyph glyph-name="uni03BC" unicode="&#x3bc;" horiz-adv-x="634" 
d="M551 539v-539h-83l-16 72h-6q-24 -40 -61 -61t-89 -21q-36 0 -63 12t-45 33h-4q2 -17 3.5 -49.5t1.5 -69.5v-156h-106v779h106v-338q0 -124 111 -124q82 0 113.5 48.5t31.5 140.5v273h106z" />
    <glyph glyph-name="nu" unicode="&#x3bd;" horiz-adv-x="561" 
d="M1 539h109l107 -293q8 -22 18 -51t19 -57.5t14 -46.5h4q54 59 85.5 126t44.5 146t13 176h106q0 -106 -18.5 -197t-64.5 -174.5t-129 -167.5h-107z" />
    <glyph glyph-name="xi" unicode="&#x3be;" horiz-adv-x="483" 
d="M51 208q0 73 41 120.5t99 66.5v6q-50 13 -78.5 45t-28.5 87q0 65 41 98.5t105 50.5l-20.5 -1.5t-49.5 -3t-54 -1.5h-25v84h360v-78h-29q-56 0 -107.5 -16t-84 -48t-32.5 -81q0 -48 34.5 -74t120.5 -26h82v-77h-85q-89 0 -134 -40.5t-45 -103.5q0 -48 20 -73t56.5 -37
t86.5 -22q80 -16 112 -46t32 -72q0 -44 -20 -85t-42 -73h-103q25 34 44 71.5t19 64.5q0 12 -7.5 22.5t-31.5 20t-73 18.5q-99 17 -151 66.5t-52 136.5z" />
    <glyph glyph-name="omicron" unicode="&#x3bf;" horiz-adv-x="609" 
d="M558 270q0 -134 -69 -207t-186 -73q-73 0 -129.5 32.5t-89 95t-32.5 152.5q0 134 68 206.5t186 72.5q74 0 130.5 -32.5t89 -94.5t32.5 -152zM161 270q0 -91 34.5 -142t109.5 -51t109.5 51t34.5 142q0 92 -34.5 141.5t-110.5 49.5q-75 0 -109 -49.5t-34 -141.5z" />
    <glyph glyph-name="pi" unicode="&#x3c0;" horiz-adv-x="683" 
d="M588 75q14 0 27 3.5t22 8.5v-80q-11 -6 -32 -11.5t-46 -5.5q-59 0 -91 33.5t-32 103.5v327h-208v-454h-106v454h-110v46l76 39h562v-85h-108v-321q0 -31 13 -44.5t33 -13.5z" />
    <glyph glyph-name="rho" unicode="&#x3c1;" horiz-adv-x="609" 
d="M557 269q0 -136 -63 -207.5t-171 -71.5q-40 0 -77.5 11.5t-65.5 31.5h-6q2 -12 4 -50t2 -82v-141h-107v515q0 136 66 205t179 69q70 0 124 -32.5t84.5 -95t30.5 -152.5zM315 461q-68 0 -101.5 -45.5t-33.5 -139.5v-152q26 -24 61 -35.5t72 -11.5q72 0 103.5 47.5
t31.5 144.5q0 98 -31 145t-102 47z" />
    <glyph glyph-name="sigma1" unicode="&#x3c2;" horiz-adv-x="488" 
d="M314 549q42 0 82 -9t72 -23l-32 -85q-30 11 -61.5 19t-64.5 8q-79 0 -114 -52.5t-35 -155.5q0 -55 15 -86t50.5 -47.5t97.5 -29.5q80 -17 112 -46.5t32 -72.5q0 -45 -20 -87t-42 -74h-103q25 34 44 72.5t19 66.5q0 13 -7.5 23t-31.5 20t-73 19q-58 11 -104 38t-72 76
t-26 126q0 107 33 173t92 96.5t137 30.5z" />
    <glyph glyph-name="sigma" unicode="&#x3c3;" horiz-adv-x="628" 
d="M559 242q0 -72 -28.5 -129t-85.5 -90t-141 -33q-113 0 -182.5 69t-69.5 200q0 101 36 162.5t102.5 89.5t157.5 28h257v-83h-133q38 -38 62.5 -91t24.5 -123zM161 259q0 -80 34.5 -131t110.5 -51t110.5 48t34.5 122q0 63 -20 115t-57 94h-29q-93 0 -138.5 -44.5
t-45.5 -152.5z" />
    <glyph glyph-name="tau" unicode="&#x3c4;" horiz-adv-x="496" 
d="M466 539v-85h-204v-288q0 -50 24 -71t62 -21q23 0 46.5 4t41.5 9v-79q-16 -8 -45.5 -13.5t-61.5 -5.5q-47 0 -87 14.5t-63.5 51.5t-23.5 105v294h-142v46l77 39h376z" />
    <glyph glyph-name="upsilon" unicode="&#x3c5;" horiz-adv-x="622" 
d="M311 -10q-91 0 -142.5 34t-72 91.5t-20.5 129.5v294h106v-294q0 -81 32.5 -125t103.5 -44q73 0 108.5 53t35.5 168q0 68 -8.5 124.5t-23.5 117.5h106q16 -61 24.5 -117t8.5 -129q0 -156 -65.5 -229.5t-192.5 -73.5z" />
    <glyph glyph-name="phi" unicode="&#x3c6;" horiz-adv-x="745" 
d="M157 546l80 -54q-37 -50 -59.5 -103t-22.5 -121q0 -67 22 -107.5t58.5 -60t79.5 -24.5v284q0 92 46 140t123 48q64 0 111 -33t72.5 -92.5t25.5 -139.5q0 -96 -39 -158.5t-102 -95t-136 -37.5v-232h-101v232q-75 6 -134.5 35t-94 88.5t-34.5 155.5q0 82 29.5 150.5
t75.5 124.5zM485 465q-29 0 -49 -22.5t-20 -81.5v-285q74 7 123 58.5t49 147.5q0 86 -27.5 134.5t-75.5 48.5z" />
    <glyph glyph-name="chi" unicode="&#x3c7;" horiz-adv-x="563" 
d="M98 543q38 0 61 -14.5t39 -42.5t31 -70l59 -153l148 276h111l-214 -375l94 -235q17 -42 35 -61.5t52 -19.5q13 0 24.5 1t22.5 3v-82q-14 -4 -31 -7t-41 -3q-67 0 -100.5 36t-57.5 102l-65 178l-168 -316h-113l233 416l-77 201q-14 40 -31.5 59.5t-42.5 19.5
q-9 0 -19.5 -1.5t-20.5 -5.5v84q14 4 31.5 7t39.5 3z" />
    <glyph glyph-name="psi" unicode="&#x3c8;" horiz-adv-x="783" 
d="M445 759v-682q83 7 131 54t48 150q0 67 -9 127.5t-25 130.5h102q16 -68 24.5 -129.5t8.5 -127.5q0 -102 -37.5 -164.5t-101.5 -92t-141 -34.5v-231h-101v231q-78 3 -138.5 31t-95 88t-34.5 160v269h104v-272q0 -70 21 -110.5t58 -58.5t85 -22v683h101z" />
    <glyph glyph-name="omega" unicode="&#x3c9;" horiz-adv-x="806" 
d="M693 539q30 -71 44 -135t14 -143q0 -81 -22.5 -142t-67.5 -95t-110 -34q-58 0 -93.5 24.5t-52.5 69.5h-5q-16 -45 -51.5 -69.5t-93.5 -24.5q-65 0 -110 34t-67.5 95t-22.5 142q0 79 14 143t44 135h106q-31 -69 -46 -134t-15 -143q0 -89 27 -137.5t77 -48.5q49 0 70 35
t21 92v149h100v-149q0 -61 22.5 -94t67.5 -33q50 0 77.5 48.5t27.5 137.5q0 77 -15 142.5t-46 134.5h106z" />
    <glyph glyph-name="iotadieresis" unicode="&#x3ca;" horiz-adv-x="364" 
d="M186 539v-377q0 -86 74 -86q22 0 45.5 4t39.5 9v-80q-17 -8 -45.5 -13.5t-58.5 -5.5q-46 0 -82 15t-57 52t-21 104v378h105zM-10 682q0 29 15.5 41.5t37.5 12.5t38 -12.5t16 -41.5q0 -27 -16 -40.5t-38 -13.5t-37.5 13.5t-15.5 40.5zM181 682q0 29 15 41.5t38 12.5
q21 0 37 -12.5t16 -41.5q0 -27 -16 -40.5t-37 -13.5q-23 0 -38 13.5t-15 40.5z" />
    <glyph glyph-name="upsilondieresis" unicode="&#x3cb;" horiz-adv-x="622" 
d="M311 -10q-91 0 -142.5 34t-72 91.5t-20.5 129.5v294h106v-294q0 -81 32.5 -125t103.5 -44q73 0 108.5 53t35.5 168q0 68 -8.5 124.5t-23.5 117.5h106q16 -61 24.5 -117t8.5 -129q0 -156 -65.5 -229.5t-192.5 -73.5zM161 682q0 29 15.5 41.5t37.5 12.5t38 -12.5t16 -41.5
q0 -27 -16 -40.5t-38 -13.5t-37.5 13.5t-15.5 40.5zM352 682q0 29 15 41.5t38 12.5q21 0 37 -12.5t16 -41.5q0 -27 -16 -40.5t-37 -13.5q-23 0 -38 13.5t-15 40.5z" />
    <glyph glyph-name="omicrontonos" unicode="&#x3cc;" horiz-adv-x="609" 
d="M558 270q0 -134 -69 -207t-186 -73q-73 0 -129.5 32.5t-89 95t-32.5 152.5q0 134 68 206.5t186 72.5q74 0 130.5 -32.5t89 -94.5t32.5 -152zM161 270q0 -91 34.5 -142t109.5 -51t109.5 51t34.5 142q0 92 -34.5 141.5t-110.5 49.5q-75 0 -109 -49.5t-34 -141.5zM262 606
v14q8 24 17 56.5t16 66t10 59.5h107v-11q-7 -23 -20.5 -55t-31 -66.5t-35.5 -63.5h-63z" />
    <glyph glyph-name="upsilontonos" unicode="&#x3cd;" horiz-adv-x="622" 
d="M311 -10q-91 0 -142.5 34t-72 91.5t-20.5 129.5v294h106v-294q0 -81 32.5 -125t103.5 -44q73 0 108.5 53t35.5 168q0 68 -8.5 124.5t-23.5 117.5h106q16 -61 24.5 -117t8.5 -129q0 -156 -65.5 -229.5t-192.5 -73.5zM267 606v14q8 24 17 56.5t16 66t10 59.5h107v-11
q-7 -23 -20.5 -55t-31 -66.5t-35.5 -63.5h-63z" />
    <glyph glyph-name="omegatonos" unicode="&#x3ce;" horiz-adv-x="806" 
d="M693 539q30 -71 44 -135t14 -143q0 -81 -22.5 -142t-67.5 -95t-110 -34q-58 0 -93.5 24.5t-52.5 69.5h-5q-16 -45 -51.5 -69.5t-93.5 -24.5q-65 0 -110 34t-67.5 95t-22.5 142q0 79 14 143t44 135h106q-31 -69 -46 -134t-15 -143q0 -89 27 -137.5t77 -48.5q49 0 70 35
t21 92v149h100v-149q0 -61 22.5 -94t67.5 -33q50 0 77.5 48.5t27.5 137.5q0 77 -15 142.5t-46 134.5h106zM359 606v14q8 24 17 56.5t16 66t10 59.5h107v-11q-7 -23 -20.5 -55t-31 -66.5t-35.5 -63.5h-63z" />
    <glyph glyph-name="afii10023" unicode="&#x401;" horiz-adv-x="557" 
d="M497 0h-402v714h402v-92h-294v-204h276v-91h-276v-234h294v-93zM155 857q0 29 15.5 41.5t37.5 12.5t38 -12.5t16 -41.5q0 -27 -16 -40.5t-38 -13.5t-37.5 13.5t-15.5 40.5zM346 857q0 29 15 41.5t38 12.5q21 0 37 -12.5t16 -41.5q0 -27 -16 -40.5t-37 -13.5
q-23 0 -38 13.5t-15 40.5z" />
    <glyph glyph-name="afii10051" unicode="&#x402;" horiz-adv-x="760" 
d="M504 -10q-24 0 -45.5 4t-36.5 10v92q33 -13 75 -13q21 0 41 7.5t33 28.5t13 64v64q0 53 -26.5 78t-89.5 25h-178v-350h-107v621h-170v93h493v-93h-216v-178h185q104 0 160 -48t56 -137v-67q0 -101 -50.5 -151t-136.5 -50z" />
    <glyph glyph-name="afii10052" unicode="&#x403;" horiz-adv-x="535" 
d="M512 714v-93h-309v-621h-108v714h417zM467 941v-10q-15 -18 -42.5 -46.5t-58 -57t-54.5 -46.5h-70v12q15 18 34 44.5t36.5 54t30.5 49.5h124z" />
    <glyph glyph-name="afii10053" unicode="&#x404;" horiz-adv-x="653" 
d="M408 631q-98 0 -160 -55t-72 -162h336v-91h-338q5 -115 63.5 -177.5t171.5 -62.5q48 0 93.5 8.5t92.5 22.5v-93q-44 -16 -91.5 -23.5t-105.5 -7.5q-117 0 -191.5 46t-110.5 128.5t-36 192.5q0 109 40.5 192t119 129.5t192.5 46.5q64 0 115 -12.5t95 -33.5l-42 -91
q-38 18 -79.5 30.5t-92.5 12.5z" />
    <glyph glyph-name="afii10054" unicode="&#x405;" horiz-adv-x="550" 
d="M505 193q0 -95 -69 -149t-189 -54q-59 0 -110 9.5t-87 27.5v102q40 -18 94 -32.5t110 -14.5q72 0 108 28t36 75q0 33 -16 55.5t-51.5 42t-92.5 41.5q-52 20 -93 47t-64 67t-23 98q0 88 64 138t168 50q58 0 107.5 -12t94.5 -31l-34 -89q-41 17 -83.5 28t-87.5 11
q-59 0 -90 -26t-31 -68q0 -33 15 -55.5t48 -41t87 -39.5q60 -24 102.5 -50.5t64.5 -64t22 -93.5z" />
    <glyph glyph-name="afii10055" unicode="&#x406;" horiz-adv-x="354" 
d="M315 0h-277v62l85 25v539l-85 26v62h277v-62l-84 -26v-539l84 -25v-62z" />
    <glyph glyph-name="afii10056" unicode="&#x407;" horiz-adv-x="354" 
d="M315 0h-277v62l85 25v539l-85 26v62h277v-62l-84 -26v-539l84 -25v-62zM28 857q0 29 15.5 41.5t37.5 12.5t38 -12.5t16 -41.5q0 -27 -16 -40.5t-38 -13.5t-37.5 13.5t-15.5 40.5zM219 857q0 29 15 41.5t38 12.5q21 0 37 -12.5t16 -41.5q0 -27 -16 -40.5t-37 -13.5
q-23 0 -38 13.5t-15 40.5z" />
    <glyph glyph-name="afii10057" unicode="&#x408;" horiz-adv-x="290" 
d="M2 -196q-26 0 -45.5 3.5t-33.5 9.5v90q16 -4 34 -7t38 -3q25 0 47 10t35.5 35.5t13.5 73.5v698h108v-693q0 -113 -54.5 -165t-142.5 -52z" />
    <glyph glyph-name="afii10058" unicode="&#x409;" horiz-adv-x="955" 
d="M70 -11q-18 0 -35.5 3.5t-31.5 8.5v89q12 -4 25.5 -7.5t28.5 -3.5q27 0 43 20.5t26 55.5t19 79q7 38 18.5 109.5t25 167t27.5 203.5h363v-294h58q102 0 163 -27t88 -74t27 -106q0 -97 -65 -155t-205 -58h-174v621h-165q-9 -70 -19.5 -149.5t-21.5 -152.5t-22 -125
q-13 -66 -33 -112t-53 -69.5t-87 -23.5zM579 91h58q84 0 125.5 29.5t41.5 92.5q0 65 -45.5 90.5t-135.5 25.5h-44v-238z" />
    <glyph glyph-name="afii10059" unicode="&#x40a;" horiz-adv-x="971" 
d="M95 0v714h108v-296h284v296h109v-294h58q102 0 163 -27t87.5 -74t26.5 -106q0 -97 -64.5 -155t-204.5 -58h-175v326h-284v-326h-108zM596 91h58q83 0 124.5 29.5t41.5 92.5q0 65 -45 90.5t-135 25.5h-44v-238z" />
    <glyph glyph-name="afii10060" unicode="&#x40b;" horiz-adv-x="760" 
d="M526 714v-94h-236v-178h192q100 0 154.5 -47.5t54.5 -136.5v-258h-108v247q0 53 -24.5 77.5t-83.5 24.5h-185v-349h-108v620h-169v94h513z" />
    <glyph glyph-name="afii10061" unicode="&#x40c;" horiz-adv-x="634" 
d="M634 0h-127l-304 362v-362h-108v714h108v-346l298 346h119l-295 -346zM501 941v-10q-15 -18 -42.5 -46.5t-58 -57t-54.5 -46.5h-70v12q15 18 34 44.5t36.5 54t30.5 49.5h124z" />
    <glyph glyph-name="afii10062" unicode="&#x40e;" horiz-adv-x="636" 
d="M636 714l-226 -509q-32 -71 -64.5 -118.5t-79 -72t-119.5 -24.5q-27 0 -53.5 4t-48.5 11v101q44 -19 96 -19q53 0 83 24t53 77l-266 526h117l179 -368q6 -12 14.5 -31t13.5 -34h4q5 13 12.5 32t13.5 33l158 368h113zM527 940q-7 -76 -53 -117.5t-151 -41.5q-73 0 -115 18
t-61 53.5t-23 87.5h97q5 -55 28 -73t76 -18q45 0 72 19.5t32 71.5h98z" />
    <glyph glyph-name="afii10145" unicode="&#x40f;" horiz-adv-x="735" 
d="M639 0h-220v-194h-108v194h-216v714h108v-620h329v620h107v-714z" />
    <glyph glyph-name="afii10017" unicode="&#x410;" horiz-adv-x="654" 
d="M540 0l-76 206h-276l-76 -206h-112l271 717h112l270 -717h-113zM434 300l-72 201q-4 11 -11 33t-14 46t-11 39q-8 -31 -18 -66t-16 -52l-72 -201h214z" />
    <glyph glyph-name="afii10018" unicode="&#x411;" horiz-adv-x="622" 
d="M95 0v714h432v-93h-324v-201h92q105 0 166 -27t86.5 -73.5t25.5 -106.5q0 -101 -63 -157t-206 -56h-209zM203 91h93q88 0 127 29.5t39 92.5q0 65 -43 90.5t-138 25.5h-78v-238z" />
    <glyph glyph-name="afii10019" unicode="&#x412;" horiz-adv-x="656" 
d="M95 714h209q136 0 206.5 -40t70.5 -138q0 -62 -33.5 -104t-95.5 -53v-5q42 -8 76.5 -26.5t54.5 -53t20 -90.5q0 -98 -68 -151t-184 -53h-256v714zM203 416h119q84 0 115.5 27t31.5 80t-38.5 76.5t-120.5 23.5h-107v-207zM203 328v-238h131q86 0 120.5 34t34.5 90
q0 51 -35.5 82.5t-126.5 31.5h-124z" />
    <glyph glyph-name="afii10020" unicode="&#x413;" horiz-adv-x="535" 
d="M512 714v-93h-309v-621h-108v714h417z" />
    <glyph glyph-name="afii10021" unicode="&#x414;" horiz-adv-x="713" 
d="M599 714v-620h92v-288h-104v194h-478v-194h-103v288h55q45 80 83 181.5t64.5 213.5t35.5 225h355zM492 620h-157q-5 -57 -19.5 -125.5t-36.5 -140t-48.5 -139t-55.5 -121.5h317v526z" />
    <glyph glyph-name="afii10022" unicode="&#x415;" horiz-adv-x="557" 
d="M497 0h-402v714h402v-92h-294v-204h276v-91h-276v-234h294v-93z" />
    <glyph glyph-name="afii10024" unicode="&#x416;" horiz-adv-x="880" 
d="M278 368l-266 346h116l261 -346v346h102v-346l261 346h116l-266 -345l277 -369h-121l-267 362v-362h-102v362l-268 -362h-120z" />
    <glyph glyph-name="afii10025" unicode="&#x417;" horiz-adv-x="606" 
d="M538 547q0 -73 -47.5 -116t-125.5 -54v-4q92 -11 141 -55.5t49 -115.5q0 -94 -73.5 -153t-218.5 -59q-65 0 -120.5 9t-100.5 30v95q46 -22 104 -34.5t108 -12.5q95 0 142.5 33.5t47.5 95.5t-59 91t-163 29h-92v88h86q112 0 162.5 32t50.5 88q0 49 -38 75.5t-102 26.5
t-109.5 -16.5t-87.5 -43.5l-50 73q46 32 109 53.5t145 21.5q117 0 179.5 -50t62.5 -127z" />
    <glyph glyph-name="afii10026" unicode="&#x418;" horiz-adv-x="784" 
d="M96 714h99v-378q0 -34 -1 -75t-2.5 -75.5t-3.5 -48.5h4l374 577h124v-714h-99v375q0 37 1.5 79.5t3.5 77t3 48.5h-4l-375 -580h-124v714z" />
    <glyph glyph-name="afii10027" unicode="&#x419;" horiz-adv-x="784" 
d="M96 714h99v-378q0 -34 -1 -75t-2.5 -75.5t-3.5 -48.5h4l374 577h124v-714h-99v375q0 37 1.5 79.5t3.5 77t3 48.5h-4l-375 -580h-124v714zM608 940q-7 -76 -53 -117.5t-151 -41.5q-73 0 -115 18t-61 53.5t-23 87.5h97q5 -55 28 -73t76 -18q45 0 72 19.5t32 71.5h98z" />
    <glyph glyph-name="afii10028" unicode="&#x41a;" horiz-adv-x="634" 
d="M634 0h-127l-304 362v-362h-108v714h108v-346l298 346h119l-295 -346z" />
    <glyph glyph-name="afii10029" unicode="&#x41b;" horiz-adv-x="719" 
d="M624 0h-108v621h-211q-9 -70 -19.5 -149.5t-21 -152.5t-21.5 -125q-13 -66 -33 -112t-53 -69.5t-87 -23.5q-18 0 -36 3.5t-31 8.5v89q12 -4 25.5 -7.5t28.5 -3.5q27 0 43 21t26 56t19 77q7 37 18.5 109t25 168t26.5 204h409v-714z" />
    <glyph glyph-name="afii10030" unicode="&#x41c;" horiz-adv-x="918" 
d="M406 0l-216 607h-4q2 -21 3.5 -54.5t2.5 -73t1 -76.5v-403h-98v714h154l205 -573h4l211 573h154v-714h-105v409q0 35 1.5 72t3 70l2.5 55h-4l-222 -606h-93z" />
    <glyph glyph-name="afii10031" unicode="&#x41d;" horiz-adv-x="748" 
d="M652 0h-108v326h-341v-326h-108v714h108v-296h341v296h108v-714z" />
    <glyph glyph-name="afii10032" unicode="&#x41e;" horiz-adv-x="785" 
d="M725 358q0 -111 -37 -193.5t-111 -128.5t-184 -46q-113 0 -187 46t-110 129t-36 194q0 110 36 192.5t110 128t188 45.5q110 0 183.5 -45.5t110.5 -128t37 -193.5zM174 358q0 -128 53 -202t166 -74q114 0 166 74t52 202t-52 201t-165 73q-114 0 -167 -73t-53 -201z" />
    <glyph glyph-name="afii10033" unicode="&#x41f;" horiz-adv-x="735" 
d="M95 0v714h544v-714h-107v621h-329v-621h-108z" />
    <glyph glyph-name="afii10034" unicode="&#x420;" horiz-adv-x="612" 
d="M295 714q140 0 204 -56.5t64 -157.5q0 -60 -26.5 -112t-88.5 -84.5t-168 -32.5h-77v-271h-108v714h200zM287 623h-84v-261h65q91 0 137.5 30.5t46.5 103.5q0 64 -40 95.5t-125 31.5z" />
    <glyph glyph-name="afii10035" unicode="&#x421;" horiz-adv-x="633" 
d="M400 631q-106 0 -166.5 -73.5t-60.5 -201.5q0 -127 56 -200t170 -73q46 0 88.5 8.5t86.5 22.5v-93q-42 -16 -86 -23.5t-102 -7.5q-110 0 -182.5 45.5t-108 128t-35.5 193.5q0 108 39.5 190.5t115.5 129.5t186 47q54 0 105.5 -11.5t94.5 -32.5l-40 -90q-35 16 -75 28.5
t-86 12.5z" />
    <glyph glyph-name="afii10036" unicode="&#x422;" horiz-adv-x="563" 
d="M335 0h-108v621h-214v93h536v-93h-214v-621z" />
    <glyph glyph-name="afii10037" unicode="&#x423;" horiz-adv-x="636" 
d="M636 714l-226 -509q-32 -71 -64.5 -118.5t-79 -72t-119.5 -24.5q-27 0 -53.5 4t-48.5 11v101q44 -19 96 -19q53 0 83 24t53 77l-266 526h117l179 -368q6 -12 14.5 -31t13.5 -34h4q5 13 12.5 32t13.5 33l158 368h113z" />
    <glyph glyph-name="afii10038" unicode="&#x424;" horiz-adv-x="821" 
d="M461 724v-88q117 -2 184.5 -39t96.5 -96t29 -131q0 -48 -15 -95t-50.5 -86t-95 -63t-149.5 -26v-110h-103v110q-91 2 -151 27t-94.5 64.5t-49 86t-14.5 92.5q0 70 29.5 129.5t97 97t182.5 39.5v88h103zM358 548q-76 -2 -120 -25t-63.5 -62t-19.5 -90q0 -83 48.5 -131.5
t154.5 -52.5v361zM461 548v-361q109 4 156.5 53.5t47.5 130.5q0 52 -19.5 91t-64 61.5t-120.5 24.5z" />
    <glyph glyph-name="afii10039" unicode="&#x425;" horiz-adv-x="610" 
d="M607 0h-123l-182 298l-184 -298h-115l237 371l-222 343h120l168 -273l169 273h115l-222 -344z" />
    <glyph glyph-name="afii10040" unicode="&#x426;" horiz-adv-x="753" 
d="M732 91v-285h-104v194h-533v714h108v-620h329v620h107v-623h93z" />
    <glyph glyph-name="afii10041" unicode="&#x427;" horiz-adv-x="707" 
d="M612 0h-108v288q-59 -21 -110.5 -33t-110.5 -12q-101 0 -156 47.5t-55 135.5v288h108v-266q0 -56 28.5 -84t93.5 -28q54 0 99.5 10t102.5 30v338h108v-714z" />
    <glyph glyph-name="afii10042" unicode="&#x428;" horiz-adv-x="1049" 
d="M953 0h-858v714h108v-620h266v620h109v-620h267v620h108v-714z" />
    <glyph glyph-name="afii10043" unicode="&#x429;" horiz-adv-x="1063" 
d="M1035 91v-285h-103v194h-837v714h108v-620h261v620h109v-620h263v620h108v-623h91z" />
    <glyph glyph-name="afii10044" unicode="&#x42a;" horiz-adv-x="702" 
d="M175 0v621h-169v93h277v-294h97q100 0 160 -27.5t86.5 -74t26.5 -105.5q0 -97 -63.5 -155t-201.5 -58h-213zM283 91h97q82 0 122 29.5t40 92.5q0 65 -44 90.5t-132 25.5h-83v-238z" />
    <glyph glyph-name="afii10045" unicode="&#x42b;" horiz-adv-x="872" 
d="M95 0v714h108v-294h92q99 0 158.5 -27.5t86 -74t26.5 -105.5q0 -97 -63.5 -155t-201.5 -58h-206zM669 0v714h108v-714h-108zM203 90h91q161 0 161 123q0 65 -43 90t-129 25h-80v-238z" />
    <glyph glyph-name="afii10046" unicode="&#x42c;" horiz-adv-x="641" 
d="M95 0v714h108v-294h112q100 0 161 -27.5t88.5 -74t27.5 -105.5q0 -97 -66 -155t-204 -58h-227zM203 91h111q82 0 124.5 29.5t42.5 92.5q0 65 -46.5 90.5t-133.5 25.5h-98v-238z" />
    <glyph glyph-name="afii10047" unicode="&#x42d;" horiz-adv-x="642" 
d="M243 631q-49 0 -92 -12t-79 -28l-41 89q45 21 99.5 32.5t114.5 11.5q111 0 186 -45.5t112.5 -126t37.5 -187.5q0 -114 -37.5 -198.5t-114 -130.5t-193.5 -46q-62 0 -107 7.5t-89 23.5v93q46 -14 90.5 -22.5t92.5 -8.5q118 0 179 61.5t65 178.5h-336v93h335
q-8 101 -67.5 158t-155.5 57z" />
    <glyph glyph-name="afii10048" unicode="&#x42e;" horiz-adv-x="1057" 
d="M996 358q0 -111 -35 -193.5t-105 -128.5t-175 -46q-101 0 -170 41.5t-106 117t-43 177.5h-159v-326h-108v714h108v-296h162q12 140 90 223.5t224 83.5q105 0 175.5 -45.5t106 -128t35.5 -193.5zM474 358q0 -128 49.5 -202t154.5 -74q108 0 157 74t49 202t-48.5 201
t-155.5 73q-106 0 -156 -73t-50 -201z" />
    <glyph glyph-name="afii10049" unicode="&#x42f;" horiz-adv-x="647" 
d="M317 290l-179 -290h-124l201 313q-35 12 -67.5 35t-53 63t-20.5 102q0 97 68 149t200 52h210v-714h-108v290h-127zM444 623h-99q-77 0 -118.5 -27.5t-41.5 -88.5t40 -94.5t124 -33.5h95v244z" />
    <glyph glyph-name="afii10065" unicode="&#x430;" horiz-adv-x="574" 
d="M292 549q101 0 151.5 -44.5t50.5 -139.5v-365h-75l-21 75h-4q-35 -44 -73.5 -64.5t-106.5 -20.5q-73 0 -121 39.5t-48 123.5q0 83 62.5 125.5t190.5 46.5l92 3v30q0 59 -27 83.5t-76 24.5q-41 0 -79 -12t-73 -29l-34 77q38 20 87.5 33.5t103.5 13.5zM389 259l-72 -2
q-92 -4 -127.5 -31t-35.5 -74q0 -42 25 -61t65 -19q62 0 103.5 35t41.5 105v47z" />
    <glyph glyph-name="afii10066" unicode="&#x431;" horiz-adv-x="606" 
d="M53 323q0 178 57.5 277t187.5 125q62 12 122 22t115 18l15 -93q-34 -5 -77.5 -11.5t-85 -13.5t-72.5 -13q-45 -9 -77.5 -32.5t-50.5 -68t-21 -117.5h6q14 19 37.5 39t57 33.5t77.5 13.5q102 0 156 -65t54 -175q0 -91 -31.5 -151.5t-88 -90.5t-131.5 -30q-114 0 -182 85.5
t-68 247.5zM311 77q59 0 96 39t37 135q0 77 -28 122t-93 45q-41 0 -74 -18.5t-56 -42t-31 -38.5q0 -46 6.5 -89.5t23 -78t45.5 -54.5t74 -20z" />
    <glyph glyph-name="afii10067" unicode="&#x432;" horiz-adv-x="592" 
d="M530 402q0 -49 -29 -77.5t-79 -38.5v-4q52 -7 88.5 -36.5t36.5 -86.5q0 -69 -52.5 -114t-172.5 -45h-239v539h239q59 0 106 -13t74.5 -42.5t27.5 -81.5zM422 390q0 34 -25 50.5t-81 16.5h-127v-136h111q122 0 122 69zM437 161q0 42 -32.5 60.5t-94.5 18.5h-121v-160h123
q59 0 92 18.5t33 62.5z" />
    <glyph glyph-name="afii10068" unicode="&#x433;" horiz-adv-x="446" 
d="M425 539v-85h-236v-454h-106v539h342z" />
    <glyph glyph-name="afii10069" unicode="&#x434;" horiz-adv-x="605" 
d="M508 539v-455h79v-273h-99v189h-372v-189h-98v273h43q65 92 98 212t37 243h312zM404 457h-116q-6 -65 -21 -133t-39 -130t-56 -110h232v373z" />
    <glyph glyph-name="afii10070" unicode="&#x435;" horiz-adv-x="572" 
d="M295 549q106 0 167 -65.5t61 -178.5v-58h-362q2 -83 43.5 -127t116.5 -44q52 0 92.5 9.5t83.5 28.5v-88q-41 -19 -82 -27.5t-98 -8.5q-78 0 -138 31t-93.5 92t-33.5 152t30.5 154t85 96.5t127.5 33.5zM295 467q-57 0 -91.5 -37t-40.5 -105h254q-1 63 -30.5 102.5
t-91.5 39.5z" />
    <glyph glyph-name="afii10072" unicode="&#x436;" horiz-adv-x="786" 
d="M765 539l-215 -261l234 -278h-117l-225 273v-273h-99v273l-225 -273h-117l234 278l-215 261h113l210 -262v262h99v-262l211 262h112z" />
    <glyph glyph-name="afii10073" unicode="&#x437;" horiz-adv-x="509" 
d="M241 549q91 0 149.5 -36t58.5 -106q0 -49 -28 -78t-75 -42v-4q32 -9 59.5 -24.5t44 -41t16.5 -66.5q0 -45 -25.5 -81.5t-79 -58t-136.5 -21.5q-60 0 -109 9t-82 26v92q34 -16 82 -29t103 -13q60 0 101.5 18t41.5 64q0 83 -153 83h-68v81h57q70 0 111.5 17t41.5 58
q0 69 -119 69q-43 0 -80 -8.5t-77 -25.5l-35 80q44 18 93.5 28t107.5 10z" />
    <glyph glyph-name="afii10074" unicode="&#x438;" horiz-adv-x="666" 
d="M184 539v-294q0 -15 -1.5 -43t-3 -54t-3.5 -39l277 430h129v-539h-100v287q0 19 1 47t2.5 54.5t2.5 40.5l-275 -429h-130v539h101z" />
    <glyph glyph-name="afii10075" unicode="&#x439;" horiz-adv-x="666" 
d="M184 539v-294q0 -15 -1.5 -43t-3 -54t-3.5 -39l277 430h129v-539h-100v287q0 19 1 47t2.5 54.5t2.5 40.5l-275 -429h-130v539h101zM543 765q-7 -76 -53 -117.5t-151 -41.5q-73 0 -115 18t-61 53.5t-23 87.5h97q5 -55 28 -73t76 -18q45 0 72 19.5t32 71.5h98z" />
    <glyph glyph-name="afii10076" unicode="&#x43a;" horiz-adv-x="556" 
d="M412 539h116l-225 -259l244 -280h-122l-236 273v-273h-106v539h106v-262z" />
    <glyph glyph-name="afii10077" unicode="&#x43b;" horiz-adv-x="598" 
d="M515 0h-107v454h-152q-13 -166 -35.5 -267.5t-60.5 -148t-98 -46.5q-37 0 -57 10v81q17 -5 33 -5q32 0 56.5 46t42 147t28.5 268h350v-539z" />
    <glyph glyph-name="afii10078" unicode="&#x43c;" horiz-adv-x="775" 
d="M691 539v-539h-96v320q0 27 1.5 54.5t3.5 52.5h-3l-168 -427h-85l-165 427h-4q2 -25 3.5 -52.5t1.5 -57.5v-317h-97v539h145l159 -413l162 413h142z" />
    <glyph glyph-name="afii10079" unicode="&#x43d;" horiz-adv-x="644" 
d="M189 539v-219h266v219h106v-539h-106v235h-266v-235h-106v539h106z" />
    <glyph glyph-name="afii10080" unicode="&#x43e;" horiz-adv-x="609" 
d="M558 270q0 -134 -69 -207t-186 -73q-73 0 -129.5 32.5t-89 95t-32.5 152.5q0 134 68 206.5t186 72.5q74 0 130.5 -32.5t89 -94.5t32.5 -152zM161 270q0 -91 34.5 -142t109.5 -51t109.5 51t34.5 142q0 92 -34.5 141.5t-110.5 49.5q-75 0 -109 -49.5t-34 -141.5z" />
    <glyph glyph-name="afii10081" unicode="&#x43f;" horiz-adv-x="632" 
d="M549 539v-539h-106v453h-254v-453h-106v539h466z" />
    <glyph glyph-name="afii10082" unicode="&#x440;" horiz-adv-x="620" 
d="M352 549q98 0 157 -70t59 -209q0 -137 -60 -208.5t-157 -71.5q-61 0 -100 22.5t-62 53.5h-7q2 -18 4.5 -42.5t2.5 -43.5v-220h-106v779h86l15 -72h5q23 34 61.5 58t101.5 24zM327 462q-75 0 -106 -43t-32 -132v-16q0 -94 30 -144t110 -50q66 0 98 54t32 141
q0 88 -32.5 139t-99.5 51z" />
    <glyph glyph-name="afii10083" unicode="&#x441;" horiz-adv-x="490" 
d="M300 -10q-112 0 -180 66.5t-68 209.5q0 100 33 162t91 91.5t132 29.5q45 0 84.5 -9t65.5 -22l-32 -86q-28 10 -59 18.5t-60 8.5q-146 0 -146 -192q0 -92 36 -140t106 -48q44 0 79 10t64 26v-92q-29 -17 -63 -25t-83 -8z" />
    <glyph glyph-name="afii10084" unicode="&#x442;" horiz-adv-x="499" 
d="M477 454h-176v-454h-105v454h-175v85h456v-85z" />
    <glyph glyph-name="afii10085" unicode="&#x443;" horiz-adv-x="527" 
d="M1 539h114l112 -306q13 -35 23 -67t14 -64h4q5 26 15.5 61t23.5 71l106 305h114l-231 -612q-29 -78 -77.5 -122.5t-126.5 -44.5q-25 0 -43 2.5t-31 5.5v84q10 -2 26 -4t33 -2q46 0 74 26.5t44 69.5l22 58z" />
    <glyph glyph-name="afii10086" unicode="&#x444;" horiz-adv-x="751" 
d="M426 760v-215q126 -11 199.5 -83.5t73.5 -192.5q0 -119 -71.5 -192t-201.5 -84v-233h-101v233q-84 7 -145.5 42.5t-95 95t-33.5 138.5q0 121 71.5 193.5t204.5 82.5v215h99zM327 461q-84 -9 -125 -59t-41 -133t40.5 -133t125.5 -59v384zM426 460v-383q83 10 123.5 59.5
t40.5 132.5t-41 132t-123 59z" />
    <glyph glyph-name="afii10087" unicode="&#x445;" horiz-adv-x="543" 
d="M206 275l-183 264h121l128 -194l128 194h120l-183 -264l192 -275h-120l-137 206l-138 -206h-120z" />
    <glyph glyph-name="afii10088" unicode="&#x446;" horiz-adv-x="649" 
d="M632 -189h-100v189h-449v539h106v-454h260v454h106v-455h77v-273z" />
    <glyph glyph-name="afii10089" unicode="&#x447;" horiz-adv-x="626" 
d="M176 539v-197q0 -85 92 -85q48 0 88 13.5t81 36.5v232h106v-539h-106v233q-42 -26 -86 -42.5t-104 -16.5q-83 0 -130 43t-47 120v202h106z" />
    <glyph glyph-name="afii10090" unicode="&#x448;" horiz-adv-x="919" 
d="M835 539v-539h-752v539h106v-454h217v454h106v-454h217v454h106z" />
    <glyph glyph-name="afii10091" unicode="&#x449;" horiz-adv-x="929" 
d="M835 539v-455h78v-272h-101v188h-729v539h106v-454h217v454h106v-454h217v454h106z" />
    <glyph glyph-name="afii10092" unicode="&#x44a;" horiz-adv-x="700" 
d="M291 539v-217h135q115 0 170.5 -39t55.5 -116t-52.5 -122t-172.5 -45h-242v454h-172v85h278zM423 239h-132v-159h135q54 0 87 19t33 64q0 43 -31 59.5t-92 16.5z" />
    <glyph glyph-name="afii10093" unicode="&#x44b;" horiz-adv-x="799" 
d="M83 0v539h106v-217h119q110 0 163 -39t53 -116t-51 -122t-166 -45h-224zM610 0v539h106v-539h-106zM189 80h110q53 0 86.5 18.5t33.5 64.5q0 43 -30.5 60t-89.5 17h-110v-160z" />
    <glyph glyph-name="afii10094" unicode="&#x44c;" horiz-adv-x="600" 
d="M189 322h143q220 0 220 -155q0 -77 -52.5 -122t-168.5 -45h-248v539h106v-217zM446 163q0 43 -32 60t-90 17h-135v-160h137q52 0 86 19t34 64z" />
    <glyph glyph-name="afii10095" unicode="&#x44d;" horiz-adv-x="499" 
d="M181 -10q-48 0 -83.5 7.5t-66.5 22.5v88q31 -13 68 -22.5t81 -9.5q70 0 111.5 38t46.5 122h-247v80h246q-6 76 -41.5 111.5t-103.5 35.5q-32 0 -65.5 -8.5t-60.5 -19.5l-30 81q29 13 71 23t86 10q74 0 131.5 -27t90 -88.5t32.5 -162.5q0 -97 -33.5 -159t-93.5 -92
t-139 -30z" />
    <glyph glyph-name="afii10096" unicode="&#x44e;" horiz-adv-x="848" 
d="M796 270q0 -134 -65.5 -207t-177.5 -73q-101 0 -165.5 62t-73.5 183h-125v-235h-106v539h106v-219h126q12 111 75.5 170t165.5 59q70 0 124 -32.5t85 -94.5t31 -152zM421 270q0 -95 31.5 -144t102.5 -49q70 0 101 49t31 144t-31.5 143t-101.5 48t-101.5 -48t-31.5 -143z
" />
    <glyph glyph-name="afii10097" unicode="&#x44f;" horiz-adv-x="569" 
d="M131 0h-120l152 222q-31 9 -58 27.5t-44.5 50t-17.5 78.5q0 78 55 119.5t144 41.5h244v-539h-106v210h-116zM146 377q0 -43 32 -64.5t89 -21.5h113v166h-131q-55 0 -79 -23t-24 -57z" />
    <glyph glyph-name="afii10071" unicode="&#x451;" horiz-adv-x="572" 
d="M295 549q106 0 167 -65.5t61 -178.5v-58h-362q2 -83 43.5 -127t116.5 -44q52 0 92.5 9.5t83.5 28.5v-88q-41 -19 -82 -27.5t-98 -8.5q-78 0 -138 31t-93.5 92t-33.5 152t30.5 154t85 96.5t127.5 33.5zM295 467q-57 0 -91.5 -37t-40.5 -105h254q-1 63 -30.5 102.5
t-91.5 39.5zM139 682q0 29 15.5 41.5t37.5 12.5t38 -12.5t16 -41.5q0 -27 -16 -40.5t-38 -13.5t-37.5 13.5t-15.5 40.5zM330 682q0 29 15 41.5t38 12.5q21 0 37 -12.5t16 -41.5q0 -27 -16 -40.5t-37 -13.5q-23 0 -38 13.5t-15 40.5z" />
    <glyph glyph-name="afii10099" unicode="&#x452;" horiz-adv-x="630" 
d="M401 -240q-23 0 -42 3.5t-32 8.5v85q27 -9 56 -9q26 0 44 17t18 66v386q0 122 -110 122q-83 0 -114 -49.5t-31 -140.5v-249h-107v599h-76v74h76v87h106v-87h181v-74h-181v-65q0 -25 -1.5 -49.5t-3.5 -40.5h6q26 41 70 61.5t95 20.5q95 0 145.5 -47t50.5 -150v-402
q0 -76 -36 -121.5t-114 -45.5z" />
    <glyph glyph-name="afii10100" unicode="&#x453;" horiz-adv-x="446" 
d="M425 539v-85h-236v-454h-106v539h342zM413 766v-10q-15 -18 -42.5 -46.5t-58 -57t-54.5 -46.5h-70v12q15 18 34 44.5t36.5 54t30.5 49.5h124z" />
    <glyph glyph-name="afii10101" unicode="&#x454;" horiz-adv-x="504" 
d="M313 -10q-77 0 -136 28.5t-92 89.5t-33 158q0 103 34 165t93 90t135 28q42 0 83 -8.5t73 -22.5l-31 -82q-30 11 -64 19t-63 8q-70 0 -106 -36.5t-44 -110.5h246v-80h-247q5 -82 41.5 -121t106.5 -39q46 0 82 9t69 23v-87q-31 -15 -65.5 -23t-81.5 -8z" />
    <glyph glyph-name="afii10102" unicode="&#x455;" horiz-adv-x="484" 
d="M441 152q0 -80 -57.5 -121t-161.5 -41q-57 0 -97.5 8t-74.5 25v93q35 -17 82.5 -30.5t92.5 -13.5q60 0 86.5 19t26.5 51q0 18 -10 32.5t-37.5 30t-80.5 35.5q-52 20 -87.5 41t-54.5 50t-19 73q0 70 56.5 107.5t149.5 37.5q49 0 92.5 -10t84.5 -28l-35 -81
q-35 15 -72 25.5t-75 10.5q-98 0 -98 -57q0 -19 11.5 -33t40 -28t79.5 -34q49 -19 84.5 -39.5t54.5 -49.5t19 -73z" />
    <glyph glyph-name="afii10103" unicode="&#x456;" horiz-adv-x="272" 
d="M137 744q24 0 42 -14t18 -47q0 -32 -18 -46.5t-42 -14.5q-25 0 -43 14.5t-18 46.5q0 33 18 47t43 14zM189 539v-539h-106v539h106z" />
    <glyph glyph-name="afii10104" unicode="&#x457;" horiz-adv-x="272" 
d="M189 0h-106v539h106v-539zM-13 682q0 29 15.5 41.5t37.5 12.5t38 -12.5t16 -41.5q0 -27 -16 -40.5t-38 -13.5t-37.5 13.5t-15.5 40.5zM178 682q0 29 15 41.5t38 12.5q21 0 37 -12.5t16 -41.5q0 -27 -16 -40.5t-37 -13.5q-23 0 -38 13.5t-15 40.5z" />
    <glyph glyph-name="afii10105" unicode="&#x458;" horiz-adv-x="272" 
d="M76 683q0 33 18 47t43 14q24 0 42 -14t18 -47q0 -32 -18 -46.5t-42 -14.5q-25 0 -43 14.5t-18 46.5zM26 -240q-26 0 -47.5 3.5t-36.5 8.5v85q16 -5 32 -7.5t36 -2.5q32 0 52.5 17.5t20.5 66.5v608h106v-613q0 -75 -38.5 -120.5t-124.5 -45.5z" />
    <glyph glyph-name="afii10106" unicode="&#x459;" horiz-adv-x="856" 
d="M485 539v-217h107q110 0 163 -39t53 -116t-52 -122t-170 -45h-208v454h-122q-14 -166 -36.5 -268t-60 -148t-96.5 -46q-38 0 -58 10v81q7 -2 15.5 -4t16.5 -2q33 0 57 46t42 147.5t29 268.5h320zM579 239h-94v-159h97q52 0 86 19t34 64q0 43 -31.5 59.5t-91.5 16.5z" />
    <glyph glyph-name="afii10107" unicode="&#x45a;" horiz-adv-x="887" 
d="M516 539v-218h105q112 0 164.5 -38.5t52.5 -115.5t-51 -122t-169 -45h-210v235h-218v-235h-107v539h107v-219h220v219h106zM611 239h-96v-159h98q53 0 86.5 19t33.5 64q0 43 -31 59.5t-91 16.5z" />
    <glyph glyph-name="afii10108" unicode="&#x45b;" horiz-adv-x="630" 
d="M189 760v-87h195v-75h-195v-64q0 -26 -2 -50t-4 -40h7q26 41 69.5 61.5t95.5 20.5q95 0 145 -47t50 -151v-328h-105v313q0 126 -111 126q-83 0 -114 -49.5t-31 -140.5v-249h-106v598h-76v75h76v87h106z" />
    <glyph glyph-name="afii10109" unicode="&#x45c;" horiz-adv-x="556" 
d="M412 539h116l-225 -259l244 -280h-122l-236 273v-273h-106v539h106v-262zM450 766v-10q-15 -18 -42.5 -46.5t-58 -57t-54.5 -46.5h-70v12q15 18 34 44.5t36.5 54t30.5 49.5h124z" />
    <glyph glyph-name="afii10110" unicode="&#x45e;" horiz-adv-x="527" 
d="M1 539h114l112 -306q13 -35 23 -67t14 -64h4q5 26 15.5 61t23.5 71l106 305h114l-231 -612q-29 -78 -77.5 -122.5t-126.5 -44.5q-25 0 -43 2.5t-31 5.5v84q10 -2 26 -4t33 -2q46 0 74 26.5t44 69.5l22 58zM468 765q-7 -76 -53 -117.5t-151 -41.5q-73 0 -115 18t-61 53.5
t-23 87.5h97q5 -55 28 -73t76 -18q45 0 72 19.5t32 71.5h98z" />
    <glyph glyph-name="afii10193" unicode="&#x45f;" horiz-adv-x="640" 
d="M271 0h-188v539h106v-454h261v454h106v-539h-185v-188h-100v188z" />
    <glyph glyph-name="afii10050" unicode="&#x490;" horiz-adv-x="546" 
d="M524 862v-241h-321v-621h-108v714h331v148h98z" />
    <glyph glyph-name="afii10098" unicode="&#x491;" horiz-adv-x="458" 
d="M432 693v-235h-243v-458h-106v539h249v154h100z" />
    <glyph glyph-name="Wgrave" unicode="&#x1e80;" horiz-adv-x="941" 
d="M932 714l-188 -714h-115l-126 441q-7 24 -14.5 54t-13.5 56.5t-8 37.5q-1 -11 -6 -37t-12 -57t-15 -57l-124 -438h-115l-187 714h111l105 -422q10 -44 19.5 -91t14.5 -84q5 38 15.5 87t21.5 88l119 422h108l123 -424q12 -40 22 -89t15 -84q4 37 14 84t21 91l105 422h110z
M445 941q12 -22 30 -49.5t37.5 -54t34.5 -44.5v-12h-71q-24 18 -54.5 46.5t-58 57t-41.5 46.5v10h123z" />
    <glyph glyph-name="wgrave" unicode="&#x1e81;" horiz-adv-x="807" 
d="M524 1l-77 269q-7 26 -16 59.5t-16 64t-11 47.5h-4q-3 -17 -10 -47.5t-15.5 -64t-16.5 -60.5l-80 -268h-118l-149 539h108l70 -273q11 -42 20.5 -89.5t13.5 -76.5h4q3 17 8.5 45.5t12 56.5t12.5 46l86 291h116l84 -291q6 -20 13 -47.5t12.5 -54.5t7.5 -45h4q2 16 7 44
t12.5 60t14.5 61l72 273h107l-151 -539h-121zM378 766q12 -22 30 -49.5t37.5 -54t34.5 -44.5v-12h-71q-24 18 -54.5 46.5t-58 57t-41.5 46.5v10h123z" />
    <glyph glyph-name="Wacute" unicode="&#x1e82;" horiz-adv-x="941" 
d="M932 714l-188 -714h-115l-126 441q-7 24 -14.5 54t-13.5 56.5t-8 37.5q-1 -11 -6 -37t-12 -57t-15 -57l-124 -438h-115l-187 714h111l105 -422q10 -44 19.5 -91t14.5 -84q5 38 15.5 87t21.5 88l119 422h108l123 -424q12 -40 22 -89t15 -84q4 37 14 84t21 91l105 422h110z
M627 941v-10q-15 -18 -42.5 -46.5t-58 -57t-54.5 -46.5h-70v12q15 18 34 44.5t36.5 54t30.5 49.5h124z" />
    <glyph glyph-name="wacute" unicode="&#x1e83;" horiz-adv-x="807" 
d="M524 1l-77 269q-7 26 -16 59.5t-16 64t-11 47.5h-4q-3 -17 -10 -47.5t-15.5 -64t-16.5 -60.5l-80 -268h-118l-149 539h108l70 -273q11 -42 20.5 -89.5t13.5 -76.5h4q3 17 8.5 45.5t12 56.5t12.5 46l86 291h116l84 -291q6 -20 13 -47.5t12.5 -54.5t7.5 -45h4q2 16 7 44
t12.5 60t14.5 61l72 273h107l-151 -539h-121zM559 766v-10q-15 -18 -42.5 -46.5t-58 -57t-54.5 -46.5h-70v12q15 18 34 44.5t36.5 54t30.5 49.5h124z" />
    <glyph glyph-name="Wdieresis" unicode="&#x1e84;" horiz-adv-x="941" 
d="M932 714l-188 -714h-115l-126 441q-7 24 -14.5 54t-13.5 56.5t-8 37.5q-1 -11 -6 -37t-12 -57t-15 -57l-124 -438h-115l-187 714h111l105 -422q10 -44 19.5 -91t14.5 -84q5 38 15.5 87t21.5 88l119 422h108l123 -424q12 -40 22 -89t15 -84q4 37 14 84t21 91l105 422h110z
M321 857q0 29 15.5 41.5t37.5 12.5t38 -12.5t16 -41.5q0 -27 -16 -40.5t-38 -13.5t-37.5 13.5t-15.5 40.5zM512 857q0 29 15 41.5t38 12.5q21 0 37 -12.5t16 -41.5q0 -27 -16 -40.5t-37 -13.5q-23 0 -38 13.5t-15 40.5z" />
    <glyph glyph-name="wdieresis" unicode="&#x1e85;" horiz-adv-x="807" 
d="M524 1l-77 269q-7 26 -16 59.5t-16 64t-11 47.5h-4q-3 -17 -10 -47.5t-15.5 -64t-16.5 -60.5l-80 -268h-118l-149 539h108l70 -273q11 -42 20.5 -89.5t13.5 -76.5h4q3 17 8.5 45.5t12 56.5t12.5 46l86 291h116l84 -291q6 -20 13 -47.5t12.5 -54.5t7.5 -45h4q2 16 7 44
t12.5 60t14.5 61l72 273h107l-151 -539h-121zM254 682q0 29 15.5 41.5t37.5 12.5t38 -12.5t16 -41.5q0 -27 -16 -40.5t-38 -13.5t-37.5 13.5t-15.5 40.5zM445 682q0 29 15 41.5t38 12.5q21 0 37 -12.5t16 -41.5q0 -27 -16 -40.5t-37 -13.5q-23 0 -38 13.5t-15 40.5z" />
    <glyph glyph-name="Ygrave" unicode="&#x1ef2;" horiz-adv-x="583" 
d="M292 380l175 334h116l-238 -437v-277h-107v273l-238 441h117zM266 941q12 -22 30 -49.5t37.5 -54t34.5 -44.5v-12h-71q-24 18 -54.5 46.5t-58 57t-41.5 46.5v10h123z" />
    <glyph glyph-name="ygrave" unicode="&#x1ef3;" horiz-adv-x="527" 
d="M1 539h114l112 -306q13 -35 23 -67t14 -64h4q5 26 15.5 61t23.5 71l106 305h114l-231 -612q-29 -78 -77.5 -122.5t-126.5 -44.5q-25 0 -43 2.5t-31 5.5v84q10 -2 26 -4t33 -2q46 0 74 26.5t44 69.5l22 58zM238 766q12 -22 30 -49.5t37.5 -54t34.5 -44.5v-12h-71
q-24 18 -54.5 46.5t-58 57t-41.5 46.5v10h123z" />
    <glyph glyph-name="endash" unicode="&#x2013;" horiz-adv-x="500" 
d="M40 224v88h420v-88h-420z" />
    <glyph glyph-name="emdash" unicode="&#x2014;" horiz-adv-x="1000" 
d="M40 224v88h920v-88h-920z" />
    <glyph glyph-name="afii00208" unicode="&#x2015;" horiz-adv-x="1000" 
d="M40 224v88h920v-88h-920z" />
    <glyph glyph-name="underscoredbl" unicode="&#x2017;" horiz-adv-x="411" 
d="M413 -90h-415v65h415v-65zM413 -223h-415v65h415v-65z" />
    <glyph glyph-name="quoteleft" unicode="&#x2018;" horiz-adv-x="187" 
d="M18 469l-6 11q14 52 38 116t48 118h77q-14 -58 -27.5 -125.5t-21.5 -119.5h-108z" />
    <glyph glyph-name="quoteright" unicode="&#x2019;" horiz-adv-x="187" 
d="M168 714l7 -11q-13 -53 -37 -116.5t-49 -117.5h-77q14 57 28 125t22 120h106z" />
    <glyph glyph-name="quotesinglbase" unicode="&#x201a;" horiz-adv-x="260" 
d="M187 116l7 -11q-13 -53 -37 -116.5t-49 -117.5h-77q14 57 28 125t22 120h106z" />
    <glyph glyph-name="quotereversed" unicode="&#x201b;" horiz-adv-x="187" 
d="M126 714q8 -52 22 -120t28 -125h-77q-25 54 -49 117.5t-38 116.5l7 11h107z" />
    <glyph glyph-name="quotedblleft" unicode="&#x201c;" horiz-adv-x="384" 
d="M372 714q-14 -58 -28 -125.5t-21 -119.5h-108l-7 11q14 52 38 116t49 118h77zM175 714q-14 -58 -28.5 -125.5t-21.5 -119.5h-107l-6 11q14 52 37.5 116t48.5 118h77z" />
    <glyph glyph-name="quotedblright" unicode="&#x201d;" horiz-adv-x="384" 
d="M365 714l7 -11q-14 -53 -37.5 -116.5t-48.5 -117.5h-78q10 38 19.5 81.5t18 86t13.5 77.5h106zM168 714l7 -11q-13 -53 -37.5 -116.5t-48.5 -117.5h-77q14 57 28 125t21 120h107z" />
    <glyph glyph-name="quotedblbase" unicode="&#x201e;" horiz-adv-x="445" 
d="M384 116l7 -11q-14 -53 -37.5 -116.5t-48.5 -117.5h-78q10 38 19.5 81.5t18 86t13.5 77.5h106zM187 116l7 -11q-13 -53 -37.5 -116.5t-48.5 -117.5h-77q14 57 28 125t21 120h107z" />
    <glyph glyph-name="dagger" unicode="&#x2020;" horiz-adv-x="513" 
d="M450 475l-168 15l26 -490h-111l25 490l-158 -15v96l158 -15l-25 204h111l-26 -204l168 15v-96z" />
    <glyph glyph-name="daggerdbl" unicode="&#x2021;" horiz-adv-x="513" 
d="M286 250l169 15v-95l-169 15l25 -185h-111l25 185l-166 -15v95l166 -15l-22 134l22 126l-166 -15v95l166 -15l-25 185h111l-25 -185l169 15v-95l-169 15l22 -126z" />
    <glyph glyph-name="bullet" unicode="&#x2022;" horiz-adv-x="376" 
d="M68 365q0 72 34.5 102.5t85.5 30.5q50 0 85 -30.5t35 -102.5q0 -71 -35 -102t-85 -31q-51 0 -85.5 31t-34.5 102z" />
    <glyph glyph-name="ellipsis" unicode="&#x2026;" horiz-adv-x="810" 
d="M68 59q0 39 20 55t48 16t48.5 -16t20.5 -55t-20.5 -56t-48.5 -17t-48 17t-20 56zM337 59q0 39 20 55t48 16t48.5 -16t20.5 -55t-20.5 -56t-48.5 -17t-48 17t-20 56zM605 59q0 39 20 55t48 16t48.5 -16t20.5 -55t-20.5 -56t-48.5 -17t-48 17t-20 56z" />
    <glyph glyph-name="perthousand" unicode="&#x2030;" horiz-adv-x="1208" 
d="M196 724q76 0 116 -58.5t40 -164.5t-37.5 -165.5t-118.5 -59.5q-74 0 -113 59.5t-39 165.5t36 164.5t116 58.5zM668 714l-396 -714h-89l396 714h89zM196 650q-65 0 -65 -149q0 -151 65 -151q69 0 69 151q0 149 -69 149zM652 438q76 0 116 -58.5t40 -164.5t-38 -165.5
t-118 -59.5q-75 0 -114 59.5t-39 165.5t36.5 164.5t116.5 58.5zM1008 438q76 0 116 -58.5t40 -164.5t-37.5 -165.5t-118.5 -59.5q-75 0 -114 59.5t-39 165.5t36.5 164.5t116.5 58.5zM652 364q-65 0 -65 -149q0 -150 65 -150q68 0 68 150q0 149 -68 149zM1008 364
q-65 0 -65 -149q0 -150 65 -150q68 0 68 150q0 149 -68 149z" />
    <glyph glyph-name="minute" unicode="&#x2032;" horiz-adv-x="253" 
d="M170 714h104l-164 -258h-69z" />
    <glyph glyph-name="second" unicode="&#x2033;" horiz-adv-x="442" 
d="M230 456l129 258h104l-163 -258h-70zM41 456l129 258h104l-164 -258h-69z" />
    <glyph glyph-name="guilsinglleft" unicode="&#x2039;" horiz-adv-x="327" 
d="M40 273l172 207l76 -42l-139 -171l139 -171l-76 -43l-172 207v13z" />
    <glyph glyph-name="guilsinglright" unicode="&#x203a;" horiz-adv-x="327" 
d="M115 480l172 -207v-13l-172 -207l-76 43l139 171l-139 171z" />
    <glyph glyph-name="exclamdbl" unicode="&#x203c;" horiz-adv-x="520" 
d="M175 212h-75l-25 502h125zM68 59q0 39 20 55t49 16q27 0 47.5 -16t20.5 -55t-20.5 -56t-47.5 -17q-29 0 -49 17t-20 56zM421 212h-75l-25 502h125zM314 59q0 39 20 55t49 16q27 0 47.5 -16t20.5 -55t-20.5 -56t-47.5 -17q-29 0 -49 17t-20 56z" />
    <glyph glyph-name="fraction" unicode="&#x2044;" horiz-adv-x="130" 
d="M320 714l-424 -714h-87l424 714h87z" />
    <glyph glyph-name="nsuperior" unicode="&#x207f;" horiz-adv-x="409" 
d="M231.408 501.58q61.1025 0 93.6035 -28.1992q32.502 -28.1992 32.502 -90.5967v-210.591h-68.2529v201.592q0 75.5967 -72.1523 75.5967q-53.3018 0 -73.7783 -29.3994q-20.4756 -29.3984 -20.4756 -84.5957v-163.193h-68.9023v323.387h54.6016l9.75098 -43.1982h3.90039
q16.9004 25.1982 46.4766 37.1982t62.7266 12z" />
    <glyph glyph-name="franc" unicode="&#x20a3;" horiz-adv-x="572" 
d="M118 0v129h-81v72h81v513h400v-92h-295v-226h276v-92h-276v-103h152v-72h-152v-129h-105z" />
    <glyph glyph-name="afii08941" unicode="&#x20a4;" horiz-adv-x="572" 
d="M338 723q56 0 101 -11.5t80 -27.5l-36 -82q-32 14 -68 23.5t-74 9.5q-48 0 -76 -25.5t-28 -86.5v-78h194v-71h-194v-72h194v-72h-195q0 -54 -18 -86.5t-52 -49.5h375v-94h-506v88q47 12 72 47t25 95h-95v72h95v72h-95v71h95v63q0 105 51 160t155 55z" />
    <glyph glyph-name="peseta" unicode="&#x20a7;" horiz-adv-x="810" 
d="M228 714q136 0 196.5 -56.5t60.5 -157.5q0 -60 -25 -112.5t-84.5 -84.5t-162.5 -32h-30v-271h-103v714h148zM224 623h-41v-261h28q85 0 127 31t42 103q0 64 -38 95.5t-118 31.5zM650 521v-108h116v-77h-116v-191q0 -35 14 -54t43 -19q18 0 37.5 4t32.5 8v-75
q-14 -7 -38.5 -13t-56.5 -6q-59 0 -94 34.5t-35 111.5v200h-75v44l79 40l34 101h59z" />
    <glyph glyph-name="Euro" unicode="&#x20ac;" horiz-adv-x="572" 
d="M384 722q97 0 176 -44l-40 -85q-29 15 -64 27t-72 12q-144 0 -177 -174h230v-72h-237q-1 -8 -1 -16v-18v-18t1 -20h206v-71h-198q16 -77 62 -119t122 -42q39 0 76.5 9t68.5 22v-92q-30 -13 -67 -22t-84 -9q-120 0 -191 67t-93 186h-76v71h68q-1 10 -1.5 18.5t-0.5 19.5
q0 10 0.5 19.5t0.5 14.5h-67v72h75q19 122 91.5 193t191.5 71z" />
    <glyph glyph-name="afii61248" unicode="&#x2105;" horiz-adv-x="813" 
d="M227 379q-74 0 -123 40.5t-49 127.5q0 62 23 100t62.5 55t88.5 17q27 0 53 -5.5t46 -14.5l-20 -59q-19 7 -40 12t-40 5q-95 0 -95 -109q0 -107 93 -107q27 0 51.5 5t43.5 13v-60q-18 -10 -43.5 -15t-50.5 -5zM640 714l-396 -714h-89l396 714h89zM758 164q0 -82 -43 -126
t-115 -44q-67 0 -111 44t-44 126q0 83 43 127t115 44q65 0 110 -44t45 -127zM523 164q0 -50 17.5 -79.5t61.5 -29.5q41 0 59.5 29.5t18.5 79.5q0 51 -18.5 80t-59.5 29q-44 0 -61.5 -29t-17.5 -80z" />
    <glyph glyph-name="afii61289" unicode="&#x2113;" horiz-adv-x="520" 
d="M312 68q33 0 57 23t28 79h66q-4 -86 -42.5 -133t-119.5 -47q-46 0 -83.5 18t-59.5 58t-22 105v98q-21 -7 -44.5 -13.5t-47.5 -13.5v70q25 7 48 14t44 14v228q0 70 37.5 113t119.5 43q65 0 103 -40t38 -111q0 -97 -55 -165.5t-143 -106.5v-129q0 -47 18 -75.5t58 -28.5z
M349 570q0 85 -56 85q-35 0 -46 -23.5t-11 -61.5v-193q56 28 84.5 77.5t28.5 115.5z" />
    <glyph glyph-name="afii61352" unicode="&#x2116;" horiz-adv-x="1022" 
d="M86 0v714h119l302 -564h6l-1.5 19t-3 48.5t-3 62.5t-1.5 60v374h94v-714h-116l-306 567h-4l1.5 -20t3 -51t3 -64.5t1.5 -61.5v-370h-95zM821 134q-67 0 -110 44.5t-43 127.5t41.5 127.5t114.5 44.5q66 0 110 -44.5t44 -127.5t-42.5 -127.5t-114.5 -44.5zM823 198
q41 0 59 28t18 80q0 54 -18 80t-59 26t-59.5 -26t-18.5 -80q0 -52 18 -80t60 -28zM685 0v76h273v-76h-273z" />
    <glyph glyph-name="trademark" unicode="&#x2122;" horiz-adv-x="773" 
d="M325 362v352h94l94 -271l97 271h91v-352h-64v204q0 8 1 31.5t2 35.5h-4l-101 -271h-53l-96 271h-4q1 -16 2 -36t1 -26v-209h-60zM118 362v298h-101v54h266v-54h-102v-298h-63z" />
    <glyph glyph-name="uni2126" unicode="&#x2126;" horiz-adv-x="783" 
d="M392 632q-110 0 -164 -61.5t-54 -171.5q0 -96 34 -172.5t122 -135.5v-91h-295v93h179q-66 47 -109.5 128t-43.5 189q0 96 39 167t113.5 109.5t178.5 38.5q106 0 179.5 -38.5t112.5 -109t39 -166.5q0 -109 -43 -190t-110 -128h179v-93h-296v91q88 58 123 135.5t35 172.5
q0 110 -54.5 171.5t-164.5 61.5z" />
    <glyph glyph-name="estimated" unicode="&#x212e;" horiz-adv-x="619" 
d="M309 -17q-85 0 -142.5 39t-87 102t-29.5 135t23 124t60.5 86t83.5 50t92 16q73 0 132 -33.5t93 -95.5t34 -147h-404v-174q22 -23 61 -41.5t84 -18.5q73 0 116 30t77 84l35 -20q-23 -37 -52.5 -68t-71.5 -49.5t-104 -18.5zM455 301v135q-19 20 -57 39t-90 19
q-50 0 -85.5 -17t-58.5 -40v-136h291z" />
    <glyph glyph-name="oneeighth" unicode="&#x215b;" horiz-adv-x="847" 
d="M120 0l424 714h88l-425 -714h-87zM160 286v259q0 24 1 49t3 43q-8 -8 -20.5 -19t-23.5 -19l-49 -37l-40 53l135 99h78v-428h-84zM621 -9q-76 0 -116 33t-40 89q0 41 22.5 67.5t54.5 43.5q-29 19 -46.5 41.5t-17.5 60.5q0 36 19.5 61t52 37.5t71.5 12.5q57 0 98 -27
t41 -82q0 -37 -20.5 -61t-50.5 -40q37 -17 61.5 -43.5t24.5 -67.5q0 -56 -43 -90.5t-111 -34.5zM621 258q26 11 43 26.5t17 40.5q0 23 -16 36.5t-45 13.5t-45 -13.5t-16 -36.5q0 -24 18 -39.5t44 -27.5zM619 54q37 0 56 16.5t19 42.5q0 27 -20.5 44.5t-55.5 29.5l-11 4
q-30 -14 -46 -32.5t-16 -45.5q0 -26 18.5 -42.5t55.5 -16.5z" />
    <glyph glyph-name="threeeighths" unicode="&#x215c;" horiz-adv-x="847" 
d="M152 278q-37 0 -69 7t-62 23v72q68 -37 132 -37q91 0 91 69q0 64 -102 64h-56v61h53q51 0 71.5 18.5t20.5 46.5t-17.5 42t-46.5 14t-53.5 -10t-51.5 -28l-40 53q31 23 66 36.5t83 13.5q67 0 104.5 -30.5t37.5 -80.5q0 -38 -21 -64t-55 -36v-4q42 -8 65.5 -35t23.5 -65
q0 -58 -42.5 -94t-131.5 -36zM154 0l424 714h87l-424 -714h-87zM635 -9q-76 0 -116 33t-40 89q0 41 22.5 67.5t54.5 43.5q-30 19 -47 41.5t-17 60.5q0 36 19.5 61t52 37.5t71.5 12.5q57 0 98 -27t41 -82q0 -37 -20.5 -61t-50.5 -40q37 -17 61.5 -43.5t24.5 -67.5
q0 -56 -43 -90.5t-111 -34.5zM635 258q26 11 42.5 26.5t16.5 40.5q0 23 -16 36.5t-44 13.5q-29 0 -45 -13.5t-16 -36.5q0 -24 18 -39.5t44 -27.5zM633 54q37 0 55.5 16.5t18.5 42.5q0 27 -20.5 44.5t-54.5 29.5l-11 4q-31 -14 -46.5 -32.5t-15.5 -45.5q0 -26 18.5 -42.5
t55.5 -16.5z" />
    <glyph glyph-name="fiveeighths" unicode="&#x215d;" horiz-adv-x="847" 
d="M153 0l424 714h87l-424 -714h-87zM163 277q-33 0 -67.5 6.5t-56.5 19.5v75q25 -16 59.5 -25.5t60.5 -9.5q43 0 68.5 18.5t25.5 58.5q0 36 -25 55.5t-71 19.5q-22 0 -40 -3.5t-32 -7.5l-37 20l16 210h246v-65h-181l-9 -97q11 2 25.5 4t31.5 2q67 0 112 -34t45 -99
q0 -70 -43.5 -109t-127.5 -39zM636 -9q-75 0 -115.5 33t-40.5 89q0 41 23 67t54 43q-29 19 -46 42t-17 61q0 36 19.5 60.5t52 37t70.5 12.5q58 0 99 -26.5t41 -81.5q0 -37 -20.5 -61t-50.5 -40q37 -17 61.5 -43.5t24.5 -67.5q0 -56 -43 -90.5t-112 -34.5zM637 258
q26 11 42.5 26.5t16.5 40.5q0 23 -16 36.5t-45 13.5t-44.5 -13.5t-15.5 -36.5q0 -25 18 -40t44 -27zM634 53q38 0 56.5 17t18.5 43q0 27 -20.5 44.5t-55.5 29.5l-10 4q-31 -14 -46.5 -32.5t-15.5 -45.5q0 -26 18 -43t55 -17z" />
    <glyph glyph-name="seveneighths" unicode="&#x215e;" horiz-adv-x="847" 
d="M111 0l424 714h88l-424 -714h-88zM92 286l169 359h-219v69h305v-56l-167 -372h-88zM627 -9q-76 0 -116 33t-40 89q0 41 22.5 67.5t54.5 43.5q-29 19 -46 41.5t-17 60.5q0 54 42 82.5t100 28.5q57 0 98.5 -27t41.5 -82q0 -37 -21 -61t-51 -40q37 -17 61.5 -43.5
t24.5 -67.5q0 -56 -42.5 -90.5t-111.5 -34.5zM628 258q26 11 42.5 26.5t16.5 40.5q0 23 -16 36.5t-45 13.5t-45 -13.5t-16 -36.5q0 -24 18 -39.5t45 -27.5zM625 54q38 0 56.5 16.5t18.5 42.5q0 27 -20.5 44.5t-55.5 29.5l-11 4q-30 -14 -46 -32.5t-16 -45.5
q0 -26 18.5 -42.5t55.5 -16.5z" />
    <glyph glyph-name="cyrillicbreve" horiz-adv-x="577" 
d="M489 765q-7 -76 -53 -117.5t-151 -41.5q-73 0 -115 18t-61 53.5t-23 87.5h97q5 -55 28 -73t76 -18q45 0 72 19.5t32 71.5h98z" />
    <glyph glyph-name="caroncommaaccent" horiz-adv-x="500" 
d="M319 760v-9q-10 -29 -31 -72.5t-44 -78.5h-60v12q10 29 19.5 72.5t13.5 75.5h102z" />
    <glyph glyph-name="commaaccent" unicode="&#x326;" 
d="M69 -61v-9q-9 -29 -31 -72.5t-49 -78.5h-59v12q7 17 14.5 44t14 55t8.5 49h102z" />
    <glyph glyph-name="commaaccentrotate" horiz-adv-x="500" 
d="M319 766v-12q-7 -18 -15 -44.5t-14 -54t-9 -49.5h-102v9q9 29 31 72.5t49 78.5h60z" />
    <glyph glyph-name="uni2074" unicode="&#x2074;" horiz-adv-x="359" 
d="M350 506h-61v-90h-88v90h-192v58l194 283h86v-275h61v-66zM201 572v89q0 21 0.5 47.5t2.5 50.5q-5 -12 -19.5 -36.5t-25.5 -40.5l-74 -110h116z" />
    <glyph glyph-name="uni2075" unicode="&#x2075;" horiz-adv-x="359" 
d="M305 844v-65h-182l-8 -97q11 2 25.5 4t31.5 2q67 0 112 -34t45 -99q0 -70 -44 -109t-127 -39q-33 0 -67.5 6.5t-57.5 19.5v75q26 -16 60 -25.5t60 -9.5q43 0 68.5 18.5t25.5 58.5q0 36 -24.5 55.5t-70.5 19.5q-22 0 -40 -3.5t-32 -7.5l-38 20l17 210h246z" />
    <glyph glyph-name="uni2077" unicode="&#x2077;" horiz-adv-x="359" 
d="M78 416l169 359h-219v69h304v-56l-166 -372h-88z" />
    <glyph glyph-name="uni2078" unicode="&#x2078;" horiz-adv-x="359" 
d="M180 853q57 0 98.5 -27t41.5 -82q0 -37 -21 -61t-51 -40q38 -17 62 -43.5t24 -67.5q0 -56 -42.5 -90.5t-111.5 -34.5q-75 0 -115.5 33t-40.5 89q0 41 23 67.5t54 43.5q-29 19 -46 41.5t-17 60.5q0 54 42 82.5t100 28.5zM179 791q-29 0 -44.5 -13.5t-15.5 -36.5
q0 -24 17.5 -39.5t44.5 -27.5q26 11 42.5 26.5t16.5 40.5q0 23 -16 36.5t-45 13.5zM166 607q-30 -14 -45.5 -32.5t-15.5 -45.5q0 -26 17.5 -42.5t55.5 -16.5t56.5 16.5t18.5 42.5q0 27 -20.5 44.5t-55.5 29.5z" />
    <glyph glyph-name="uni2000" unicode="&#x2000;" horiz-adv-x="500" 
 />
    <glyph glyph-name="uni2001" unicode="&#x2001;" horiz-adv-x="1000" 
 />
    <glyph glyph-name="uni2002" unicode="&#x2002;" horiz-adv-x="500" 
 />
    <glyph glyph-name="uni2003" unicode="&#x2003;" horiz-adv-x="1000" 
 />
    <glyph glyph-name="uni2004" unicode="&#x2004;" horiz-adv-x="333" 
 />
    <glyph glyph-name="uni2005" unicode="&#x2005;" horiz-adv-x="250" 
 />
    <glyph glyph-name="uni2006" unicode="&#x2006;" horiz-adv-x="167" 
 />
    <glyph glyph-name="uni2007" unicode="&#x2007;" horiz-adv-x="572" 
 />
    <glyph glyph-name="uni2008" unicode="&#x2008;" horiz-adv-x="273" 
 />
    <glyph glyph-name="uni2009" unicode="&#x2009;" horiz-adv-x="200" 
 />
    <glyph glyph-name="uni200A" unicode="&#x200a;" horiz-adv-x="100" 
 />
    <glyph glyph-name="uni200B" unicode="&#x200b;" 
 />
    <glyph glyph-name="uniFEFF" unicode="&#xfeff;" 
 />
    <glyph glyph-name="uniFFFC" unicode="&#xfffc;" horiz-adv-x="1000" 
d="M821 687v54h148v-148h-53v94h-95zM630 687v54h133v-54h-133zM439 687v54h133v-54h-133zM248 687v54h132v-54h-132zM41 593v148h148v-54h-94v-94h-54zM969 402h-53v132h53v-132zM95 402h-54v132h54v-132zM422 307q0 -66 -31 -106.5t-97 -40.5t-97 40.5t-31 106.5
q0 67 31 107t97 40t97 -40t31 -107zM728 161q-24 0 -39 5v50q7 -2 15 -3t18 -1q18 0 30 8.5t12 33.5v196h61v-194q0 -50 -27 -72.5t-70 -22.5zM463 450h84q53 0 80.5 -16t27.5 -57q0 -24 -11.5 -40t-32.5 -20v-4q22 -5 37 -18.5t15 -47.5q0 -39 -26.5 -61t-72.5 -22h-101
v286zM228 307q0 -45 16 -70.5t50 -25.5t50 25.5t16 70.5t-16 70.5t-50 25.5t-50 -25.5t-16 -70.5zM523 337h32q23 0 31.5 8t8.5 24q0 31 -43 31h-29v-63zM95 210h-54v133h54v-133zM969 210h-53v133h53v-133zM523 289v-75h36q24 0 33 10.5t9 28.5q0 16 -9.5 26t-34.5 10h-34z
M95 19h-54v132h54v-132zM969 19h-53v132h53v-132zM41 -187v148h54v-95h94v-53h-148zM821 -187v53h95v95h53v-148h-148zM439 -187v53h133v-53h-133zM248 -187v53h132v-53h-132zM630 -187v53h133v-53h-133z" />
    <glyph glyph-name="uniFFFD" unicode="&#xfffd;" horiz-adv-x="1000" 
d="M499 760l459 -458l-459 -458l-458 458zM531 179v23q0 25 10 39.5t43 40.5q43 34 64.5 65t21.5 80q0 67 -46 104t-126 37q-42 0 -86 -14t-78 -34l40 -87q33 17 64 28t58 11q31 0 46 -14t15 -37q0 -29 -13 -46t-46 -43q-38 -30 -54 -57.5t-16 -66.5v-29h103zM415 45
q0 -35 20 -50.5t49 -15.5q27 0 47.5 15.5t20.5 50.5q0 37 -20.5 52t-47.5 15q-29 0 -49 -15t-20 -52z" />
    <glyph glyph-name="uni01F0" unicode="&#x1f0;" horiz-adv-x="272" 
d="M26 -240q-26 0 -47.5 3.5t-36.5 8.5v85q16 -5 32 -7.5t36 -2.5q32 0 52.5 17.5t20.5 66.5v608h106v-613q0 -75 -38.5 -120.5t-124.5 -45.5zM79 606q-14 22 -36 49t-46 53t-42 45v13h72q26 -17 54 -40t54 -50q26 27 55 50.5t55 39.5h73v-13q-19 -19 -43 -44.5t-46.5 -53
t-35.5 -49.5h-114z" />
    <glyph glyph-name="uni02BC" unicode="&#x2bc;" horiz-adv-x="187" 
d="M168 714l7 -11q-13 -53 -37 -116.5t-49 -117.5h-77q14 57 28 125t22 120h106z" />
    <glyph glyph-name="uni03D1" unicode="&#x3d1;" horiz-adv-x="655" 
d="M307 765q77 0 130.5 -35t84.5 -99.5t43 -150.5h71v-84h-64q1 -10 1.5 -23.5t0.5 -26.5q0 -101 -29 -181.5t-91.5 -127.5t-161.5 -47q-76 0 -118 25t-58.5 64.5t-16.5 83.5q0 36 5.5 71t5.5 58q0 22 -8 30.5t-23 8.5q-12 0 -24.5 -4.5t-20.5 -9.5l-24 70q21 11 49.5 19
t59.5 8q48 0 69.5 -25t21.5 -65q0 -33 -6 -71.5t-6 -79.5q0 -39 22.5 -69t76.5 -30q169 0 169 277v22t-1 22q-125 1 -200 31t-108 78t-33 106q0 43 19.5 78t60 56t103.5 21zM306 681q-39 0 -59 -19.5t-20 -53.5q0 -35 22 -63.5t73 -46t137 -18.5q-12 97 -53.5 149t-99.5 52z
" />
    <glyph glyph-name="uni03D2" unicode="&#x3d2;" horiz-adv-x="589" 
d="M290 374q21 48 43.5 99.5t43.5 97t38 75.5q22 38 48 56t68 18q33 0 54 -9v-83q-6 2 -14 3t-16 1q-15 0 -28.5 -8t-32.5 -40q-11 -19 -29.5 -53.5t-40 -78.5t-43 -92t-38.5 -93v-267h-109v273l-234 441h117z" />
    <glyph glyph-name="uni03D6" unicode="&#x3d6;" horiz-adv-x="898" 
d="M869 539v-85h-124q23 -54 35.5 -112t12.5 -113q0 -119 -51.5 -179t-148.5 -60q-59 0 -94 24.5t-52 69.5h-5q-17 -45 -52.5 -69.5t-93.5 -24.5q-98 0 -148.5 60t-50.5 179q0 55 14.5 113t37.5 112h-134v46l75 39h779zM644 454h-394q-21 -50 -36 -107.5t-15 -112.5
q0 -87 27.5 -122.5t77.5 -35.5q47 0 69 35t22 92v83h100v-83q0 -61 23 -94t68 -33q50 0 77 35.5t27 121.5q0 55 -12 112t-34 109z" />
    <glyph glyph-name="uni1E3E" unicode="&#x1e3e;" horiz-adv-x="918" 
d="M406 0l-216 607h-4q2 -21 3.5 -54.5t2.5 -73t1 -76.5v-403h-98v714h154l205 -573h4l211 573h154v-714h-105v409q0 35 1.5 72t3 70l2.5 55h-4l-222 -606h-93zM615 941v-10q-15 -18 -42.5 -46.5t-58 -57t-54.5 -46.5h-70v12q15 18 34 44.5t36.5 54t30.5 49.5h124z" />
    <glyph glyph-name="uni1E3F" unicode="&#x1e3f;" horiz-adv-x="949" 
d="M687 549q91 0 137 -47t46 -151v-351h-106v337q0 125 -101 125q-72 0 -103 -44.5t-31 -127.5v-290h-105v337q0 125 -102 125q-76 0 -104.5 -49t-28.5 -141v-272h-106v539h84l15 -72h6q25 42 67.5 62t90.5 20q124 0 164 -87h8q26 44 72 65.5t97 21.5zM642 766v-10
q-15 -18 -42.5 -46.5t-58 -57t-54.5 -46.5h-70v12q15 18 34 44.5t36.5 54t30.5 49.5h124z" />
    <glyph glyph-name="uni1E00" unicode="&#x1e00;" horiz-adv-x="654" 
d="M540 0l-76 206h-276l-76 -206h-112l271 717h112l270 -717h-113zM434 300l-72 201q-4 11 -11 33t-14 46t-11 39q-8 -31 -18 -66t-16 -52l-72 -201h214zM327 -279q-50 0 -81.5 29t-31.5 80t31.5 80t81.5 29q48 0 81.5 -29t33.5 -79q0 -52 -33 -81t-82 -29zM327 -223
q23 0 38 14t15 39q0 26 -15 39.5t-38 13.5q-24 0 -39 -13.5t-15 -39.5q0 -25 13.5 -39t40.5 -14z" />
    <glyph glyph-name="uni1E01" unicode="&#x1e01;" horiz-adv-x="574" 
d="M292 549q101 0 151.5 -44.5t50.5 -139.5v-365h-75l-21 75h-4q-35 -44 -73.5 -64.5t-106.5 -20.5q-73 0 -121 39.5t-48 123.5q0 83 62.5 125.5t190.5 46.5l92 3v30q0 59 -27 83.5t-76 24.5q-41 0 -79 -12t-73 -29l-34 77q38 20 87.5 33.5t103.5 13.5zM389 259l-72 -2
q-92 -4 -127.5 -31t-35.5 -74q0 -42 25 -61t65 -19q62 0 103.5 35t41.5 105v47zM272 -279q-50 0 -81.5 29t-31.5 80t31.5 80t81.5 29q48 0 81.5 -29t33.5 -79q0 -52 -33 -81t-82 -29zM272 -223q23 0 38 14t15 39q0 26 -15 39.5t-38 13.5q-24 0 -39 -13.5t-15 -39.5
q0 -25 13.5 -39t40.5 -14z" />
    <glyph glyph-name="uni02F3" unicode="&#x2f3;" horiz-adv-x="333" 
d="M165 -279q-50 0 -81.5 29t-31.5 80t31.5 80t81.5 29q48 0 81.5 -29t33.5 -79q0 -52 -33 -81t-82 -29zM165 -223q23 0 38 14t15 39q0 26 -15 39.5t-38 13.5q-24 0 -39 -13.5t-15 -39.5q0 -25 13.5 -39t40.5 -14z" />
    <glyph glyph-name="Ohorn" unicode="&#x1a0;" horiz-adv-x="796" 
d="M725 358q0 -111 -37 -193.5t-111 -128.5t-184 -46q-113 0 -187 46t-110 129t-36 194q0 110 36 192.5t110 128t188 45.5q83 0 146 -27t104 -76q36 13 47 50t11 88h111l7 -11q-13 -66 -43 -116t-93 -74q41 -84 41 -201zM174 358q0 -128 52.5 -202t166.5 -74q115 0 166.5 74
t51.5 202t-51.5 201t-165.5 73q-115 0 -167.5 -73t-52.5 -201z" />
    <glyph glyph-name="ohorn" unicode="&#x1a1;" horiz-adv-x="635" 
d="M558 270q0 -134 -69 -207t-186 -73q-73 0 -129.5 32.5t-89 95t-32.5 152.5q0 134 68 206.5t186 72.5q110 0 178 -68q44 13 56.5 51t12.5 89h109l7 -11q-13 -70 -44 -119t-99 -71q15 -31 23.5 -68.5t8.5 -81.5zM161 270q0 -95 34 -144t110 -49t110 49t34 144t-34.5 143
t-110.5 48t-109.5 -48t-33.5 -143z" />
    <glyph glyph-name="Uhorn" unicode="&#x1af;" horiz-adv-x="811" 
d="M649 714v-96q45 10 60.5 47.5t15.5 94.5h109l7 -11q-9 -49 -28.5 -91t-58 -70.5t-105.5 -39.5v-296q0 -74 -29.5 -133.5t-90.5 -94t-158 -34.5q-138 0 -210 72.5t-72 191.5v460h108v-460q0 -84 43.5 -128t132.5 -44q91 0 130 47.5t39 125.5v459h107z" />
    <glyph glyph-name="uhorn" unicode="&#x1b0;" horiz-adv-x="699" 
d="M730 622l7 -11q-9 -49 -28 -92t-57 -72t-105 -37v-410h-85l-15 71h-5q-26 -42 -71.5 -61.5t-96.5 -19.5q-95 0 -145.5 46.5t-50.5 149.5v352h107v-336q0 -63 26.5 -94t82.5 -31q83 0 115 48.5t32 140.5v272h106v-58q44 9 59 47.5t15 94.5h109z" />
    <glyph glyph-name="hook" 
d="M-186 729q0 -38 -22.5 -59.5t-58.5 -30.5l-5 -48h-63l-8 82q36 6 55 17.5t19 33.5t-16 29.5t-40 7.5q-33 0 -54 -6v61q22 8 64 8q62 0 95.5 -24t33.5 -71z" />
    <glyph glyph-name="uni0400" unicode="&#x400;" horiz-adv-x="557" 
d="M497 0h-402v714h402v-92h-294v-204h276v-91h-276v-234h294v-93zM278 941q12 -22 30 -49.5t37.5 -54t34.5 -44.5v-12h-71q-24 18 -54.5 46.5t-58 57t-41.5 46.5v10h123z" />
    <glyph glyph-name="uni040D" unicode="&#x40d;" horiz-adv-x="784" 
d="M96 714h99v-378q0 -34 -1 -75t-2.5 -75.5t-3.5 -48.5h4l374 577h124v-714h-99v375q0 37 1.5 79.5t3.5 77t3 48.5h-4l-375 -580h-124v714zM378 941q12 -22 30 -49.5t37.5 -54t34.5 -44.5v-12h-71q-24 18 -54.5 46.5t-58 57t-41.5 46.5v10h123z" />
    <glyph glyph-name="uni0450" unicode="&#x450;" horiz-adv-x="572" 
d="M295 549q106 0 167 -65.5t61 -178.5v-58h-362q2 -83 43.5 -127t116.5 -44q52 0 92.5 9.5t83.5 28.5v-88q-41 -19 -82 -27.5t-98 -8.5q-78 0 -138 31t-93.5 92t-33.5 152t30.5 154t85 96.5t127.5 33.5zM295 467q-57 0 -91.5 -37t-40.5 -105h254q-1 63 -30.5 102.5
t-91.5 39.5zM263 766q12 -22 30 -49.5t37.5 -54t34.5 -44.5v-12h-71q-24 18 -54.5 46.5t-58 57t-41.5 46.5v10h123z" />
    <glyph glyph-name="uni045D" unicode="&#x45d;" horiz-adv-x="666" 
d="M184 539v-294q0 -15 -1.5 -43t-3 -54t-3.5 -39l277 430h129v-539h-100v287q0 19 1 47t2.5 54.5t2.5 40.5l-275 -429h-130v539h101zM313 766q12 -22 30 -49.5t37.5 -54t34.5 -44.5v-12h-71q-24 18 -54.5 46.5t-58 57t-41.5 46.5v10h123z" />
    <glyph glyph-name="uni0460" unicode="&#x460;" horiz-adv-x="929" 
d="M237 -4q-56 94 -103 212t-76.5 248t-33.5 258h112q6 -120 30 -232.5t56 -207t62 -160.5h5q6 32 18 72t26 80l86 240q-9 52 -15 104.5t-8 103.5h112q3 -81 17.5 -165t36.5 -163.5t48.5 -150.5t54.5 -127h4q56 116 89.5 266.5t34.5 339.5h112q-2 -207 -50 -388.5
t-141 -329.5h-99q-31 50 -60.5 111t-54 124.5t-40.5 118.5l-120 -354h-103z" />
    <glyph glyph-name="uni0461" unicode="&#x461;" horiz-adv-x="817" 
d="M789 540q-7 -146 -50.5 -276t-131.5 -264h-97q-28 51 -58 112.5t-48 117.5l-114 -230h-95q-43 68 -82.5 154.5t-66 185t-28.5 200.5h106q5 -94 24 -178t44.5 -153t51.5 -118h3q8 25 23.5 52.5t28.5 54.5l69 139q-12 47 -19 100t-8 103h106q5 -122 37 -236.5t72 -214.5h4
q50 85 83 199.5t40 251.5h106z" />
    <glyph glyph-name="uni0462" unicode="&#x462;" horiz-adv-x="674" 
d="M151 0v528h-145v86h145v100h109v-100h196v-86h-196v-108h84q104 0 165.5 -27.5t88 -74t26.5 -105.5q0 -98 -64 -155.5t-207 -57.5h-202zM260 90h85q86 0 127.5 30t41.5 93q0 65 -45.5 90t-137.5 25h-71v-238z" />
    <glyph glyph-name="uni0463" unicode="&#x463;" horiz-adv-x="642" 
d="M231 644v-105h171v-85h-171v-133h138q226 0 226 -154q0 -77 -53 -122t-173 -45h-243v454h-120v85h120v105h105zM362 239h-131v-159h133q55 0 90 19t35 64q0 43 -32.5 59.5t-94.5 16.5z" />
    <glyph glyph-name="uni0464" unicode="&#x464;" horiz-adv-x="930" 
d="M681 -10q-109 0 -181 41.5t-109.5 117t-42.5 177.5h-145v-326h-108v714h108v-296h149q10 92 53 160.5t116 107t176 38.5q56 0 108 -13t94 -34l-39 -90q-37 17 -78.5 30.5t-87.5 13.5q-99 0 -158 -54.5t-72 -158.5h326v-92h-328q5 -113 63 -178t168 -65q47 0 90.5 8.5
t88.5 22.5v-93q-43 -16 -87.5 -23.5t-103.5 -7.5z" />
    <glyph glyph-name="uni0465" unicode="&#x465;" horiz-adv-x="759" 
d="M572 -10q-107 0 -176.5 59t-78.5 186h-128v-235h-106v539h106v-219h129q8 82 43 132.5t88.5 73.5t120.5 23q44 0 84 -9.5t69 -22.5l-31 -81q-26 11 -58 19t-62 8q-69 0 -104 -35.5t-42 -107.5h242v-85h-242q4 -83 41.5 -121t106.5 -38q44 0 79 9.5t66 22.5v-88
q-30 -15 -64.5 -22.5t-82.5 -7.5z" />
    <glyph glyph-name="uni0466" unicode="&#x466;" horiz-adv-x="697" 
d="M406 715l291 -715h-110l-126 324h-64v-324h-97v324h-64l-127 -324h-109l290 715h116zM348 626q-4 -15 -12.5 -40.5t-19 -52.5t-17.5 -46l-30 -75h158l-32 81q-11 29 -25 66t-22 67z" />
    <glyph glyph-name="uni0467" unicode="&#x467;" horiz-adv-x="592" 
d="M360 539l229 -539h-106l-92 226h-48v-226h-94v226h-50l-91 -226h-105l228 539h129zM297 472h-4q-7 -24 -18 -52t-20 -49l-25 -64h131l-25 63q-10 23 -21.5 53t-17.5 49z" />
    <glyph glyph-name="uni0468" unicode="&#x468;" horiz-adv-x="951" 
d="M662 715l289 -715h-112l-125 326h-63v-326h-96v326h-63l-126 -326h-111l132 326h-184v-326h-108v714h108v-296h221l121 297h117zM603 626q-7 -27 -21 -64.5t-27 -70.5l-30 -76h154l-30 80q-12 30 -25.5 66.5t-20.5 64.5z" />
    <glyph glyph-name="uni0469" unicode="&#x469;" horiz-adv-x="816" 
d="M584 539l228 -539h-105l-94 235h-47v-235h-94v235h-46l-94 -235h-106l99 235h-143v-235h-99v539h99v-220h179l94 220h129zM521 472h-4q-7 -20 -18.5 -52t-20.5 -54l-22 -51h126l-23 57q-10 23 -21 52.5t-17 47.5z" />
    <glyph glyph-name="uni046A" unicode="&#x46a;" horiz-adv-x="751" 
d="M672 714v-67l-199 -236q59 -7 95.5 -30t59 -63t40.5 -97l69 -221h-110l-64 210q-13 44 -28 69t-39 36.5t-67 13.5v-329h-107v329q-43 -2 -67 -13.5t-38 -36.5t-27 -69l-64 -210h-112l68 221q17 56 39.5 96t58.5 63.5t95 30.5l-195 236v67h592zM538 620h-325l162 -197z
" />
    <glyph glyph-name="uni046B" unicode="&#x46b;" horiz-adv-x="635" 
d="M570 539v-51l-156 -175q46 -7 74 -26.5t45 -50t32 -71.5l61 -165h-99l-58 157q-11 31 -23 49t-31 26.5t-50 9.5v-242h-95v242q-34 -1 -52.5 -9t-30 -26.5t-23.5 -49.5l-58 -157h-99l61 165q15 41 32.5 71.5t45.5 50t74 26.5l-156 175v51h506zM440 458h-246l123 -139z" />
    <glyph glyph-name="uni046C" unicode="&#x46c;" horiz-adv-x="1010" 
d="M936 714v-67l-199 -237q59 -6 96 -29t59 -63t40 -97l69 -221h-108l-65 210q-14 46 -29.5 71t-40 35t-65.5 12v-328h-108v328q-43 -2 -67 -13t-39 -36.5t-27 -68.5l-64 -210h-111l71 224q11 36 23.5 61.5t29.5 40.5h-198v-326h-108v714h108v-296h328l-188 229v67h593z
M801 620h-324l162 -198z" />
    <glyph glyph-name="uni046D" unicode="&#x46d;" horiz-adv-x="858" 
d="M795 539v-51l-156 -176q47 -6 74.5 -25.5t44.5 -50t32 -71.5l61 -165h-99l-58 157q-17 46 -37.5 64.5t-66.5 19.5v-241h-95v241q-33 -1 -52 -9t-31 -26t-23 -49l-59 -157h-98l61 165q8 22 17.5 41t19.5 30h-148v-236h-99v539h99v-219h257l-150 168v51h506zM665 458h-246
l123 -136z" />
    <glyph glyph-name="uni046E" unicode="&#x46e;" horiz-adv-x="600" 
d="M435 857q18 0 31.5 -2.5t21.5 -4.5v-62q-6 2 -16 4t-21 2q-23 0 -49 -21t-48 -54q86 -13 132 -60t46 -112q0 -73 -48 -116t-125 -55v-4q90 -11 140 -54.5t50 -114.5q0 -94 -69.5 -151t-218.5 -60q-53 -2 -80 -8.5t-36.5 -18t-9.5 -28.5q0 -21 16.5 -34.5t63.5 -13.5
q42 0 73 1.5t57.5 2.5t57.5 1q42 0 65.5 -5.5t35.5 -13.5v-93q-10 9 -36 16.5t-67 7.5q-43 0 -86 -2.5t-107 -2.5q-68 0 -107.5 18.5t-56.5 49.5t-17 69q0 42 21.5 73t71.5 48.5t134 20.5q97 3 140.5 33t43.5 94t-60.5 91.5t-161.5 27.5h-92v88h87q112 0 162 32t50 88
q0 49 -38 75.5t-102 26.5q-59 0 -106.5 -16.5t-89.5 -43.5l-51 73q38 25 81.5 43.5t98.5 26.5q-26 30 -57.5 63l-52.5 55v13h76q23 -16 51.5 -42.5t54.5 -52.5q18 23 40 46.5t48 39.5t59 16z" />
    <glyph glyph-name="uni046F" unicode="&#x46f;" horiz-adv-x="509" 
d="M394 667q18 0 31 -2.5t21 -4.5v-62q-13 5 -36 5q-22 0 -45.5 -17.5t-43.5 -45.5q58 -14 93 -47.5t35 -85.5q0 -49 -28 -78t-75 -42v-4q32 -9 59.5 -24t44 -40.5t16.5 -65.5q0 -45 -25 -81t-79 -57.5t-141 -22.5q-49 0 -73.5 -6.5t-32.5 -18t-8 -25.5q0 -23 17 -34.5
t63 -11.5q53 0 93.5 2.5t77.5 2.5q34 0 53 -5.5t27 -14.5v-85q-10 10 -32.5 15.5t-44.5 5.5q-35 0 -84.5 -2.5t-106.5 -2.5q-60 0 -94 18t-48.5 47t-14.5 62q0 38 18.5 68.5t61.5 48.5t118 19q71 1 111 20t40 63q0 43 -38.5 62.5t-116.5 19.5h-66v81h57q70 0 111.5 17
t41.5 58q0 69 -119 69q-39 0 -78 -8.5t-79 -25.5l-35 80q30 12 59.5 20.5t62.5 12.5q-21 26 -46.5 55t-45.5 48v13h74q23 -16 49 -40.5t54 -52.5q19 23 40.5 46t48 38.5t58.5 15.5z" />
    <glyph glyph-name="uni0470" unicode="&#x470;" horiz-adv-x="825" 
d="M772 714v-235q0 -55 -15 -103t-50 -84t-94.5 -56t-149.5 -20v-216h-102v216q-91 0 -150.5 20.5t-94 56.5t-49 83.5t-14.5 101.5v236h105v-234q0 -92 49 -133t154 -41v408h102v-408q104 0 153 41t49 131v236h107z" />
    <glyph glyph-name="uni0471" unicode="&#x471;" horiz-adv-x="783" 
d="M445 759v-682q83 7 131 54t48 150q0 67 -9 127.5t-25 130.5h102q16 -68 24.5 -129.5t8.5 -127.5q0 -102 -37.5 -164.5t-101.5 -92t-141 -34.5v-231h-101v231q-78 3 -138.5 31t-95 88t-34.5 160v269h104v-272q0 -70 21 -110.5t58 -58.5t85 -22v683h101z" />
    <glyph glyph-name="uni0472" unicode="&#x472;" horiz-adv-x="786" 
d="M725 358q0 -111 -37 -193.5t-111 -128.5t-184 -46q-113 0 -187 46t-110 129t-36 194q0 110 36 192.5t110 128t188 45.5q110 0 183.5 -45.5t110.5 -128t37 -193.5zM394 632q-103 0 -156 -59t-63 -162h434q-10 103 -61.5 162t-153.5 59zM393 82q105 0 158 62.5t60 174.5
h-437q8 -112 60.5 -174.5t158.5 -62.5z" />
    <glyph glyph-name="uni0473" unicode="&#x473;" horiz-adv-x="609" 
d="M558 270q0 -134 -69 -207t-186 -73q-73 0 -129.5 32.5t-89 95t-32.5 152.5q0 134 68 206.5t186 72.5q74 0 130.5 -32.5t89 -94.5t32.5 -152zM304 461q-67 0 -100.5 -36.5t-41.5 -108.5h285q-7 72 -42 108.5t-101 36.5zM305 77q68 0 102.5 40t39.5 117h-285q5 -77 40 -117
t103 -40z" />
    <glyph glyph-name="uni0474" unicode="&#x474;" horiz-adv-x="659" 
d="M627 631q-32 0 -49.5 -30t-37.5 -92l-166 -509h-121l-253 714h111l157 -453q16 -47 26 -84.5t18 -75.5q8 39 19 80t25 88l81 253q22 69 42.5 112.5t49.5 64.5t77 21q22 0 40.5 -4t30.5 -9v-87q-11 4 -23.5 7.5t-26.5 3.5z" />
    <glyph glyph-name="uni0475" unicode="&#x475;" horiz-adv-x="542" 
d="M506 544q12 0 25.5 -2.5t24.5 -6.5v-82q-8 4 -17.5 5.5t-18.5 1.5q-22 0 -35 -19t-25 -53l-131 -388h-127l-202 539h111l119 -341q14 -38 23 -69.5t11 -48.5h4q3 22 11 55.5t19 67.5l67 203q17 52 34 82t41.5 43t65.5 13z" />
    <glyph glyph-name="uni0476" unicode="&#x476;" horiz-adv-x="659" 
d="M627 631q-32 0 -49.5 -30t-37.5 -92l-166 -509h-121l-253 714h111l157 -453q16 -47 26 -84.5t18 -75.5q8 39 19 80t25 88l81 253q22 69 42.5 112.5t49.5 64.5t77 21q22 0 40.5 -4t30.5 -9v-87q-11 4 -23.5 7.5t-26.5 3.5zM374 941q16 -34 40.5 -77t45.5 -71v-12h-59
q-22 18 -51 46.5t-53 57t-35 46.5v10h112zM193 941q16 -34 40 -77t45 -71v-12h-58q-23 18 -51 46.5t-53 57t-35 46.5v10h112z" />
    <glyph glyph-name="uni0477" unicode="&#x477;" horiz-adv-x="542" 
d="M506 544q12 0 25.5 -2.5t24.5 -6.5v-82q-8 4 -17.5 5.5t-18.5 1.5q-22 0 -35 -19t-25 -53l-131 -388h-127l-202 539h111l119 -341q14 -38 23 -69.5t11 -48.5h4q3 22 11 55.5t19 67.5l67 203q17 52 34 82t41.5 43t65.5 13zM326 766q16 -34 40.5 -77t45.5 -71v-12h-59
q-22 18 -51 46.5t-53 57t-35 46.5v10h112zM145 766q16 -34 40 -77t45 -71v-12h-58q-23 18 -51 46.5t-53 57t-35 46.5v10h112z" />
    <glyph glyph-name="uni0478" unicode="&#x478;" horiz-adv-x="1249" 
d="M678 358q0 -111 -33.5 -193.5t-102 -128.5t-173.5 -46q-107 0 -175.5 46t-101 129t-32.5 194q0 110 32.5 192.5t101 128t176.5 45.5q104 0 172.5 -45.5t102 -128t33.5 -193.5zM172 358q0 -128 46.5 -202t150.5 -74q106 0 151 74t45 202t-45 201t-150 73t-151.5 -73
t-46.5 -201zM720 539h114l114 -307q13 -34 22.5 -66t14.5 -64h4q5 25 15.5 60.5t23.5 70.5l105 306h113l-230 -612q-29 -78 -78 -122.5t-127 -44.5q-25 0 -43 2.5t-31 5.5v84q11 -2 26.5 -4t32.5 -2q46 0 74 26.5t44 69.5l23 58z" />
    <glyph glyph-name="uni0479" unicode="&#x479;" horiz-adv-x="1117" 
d="M558 270q0 -134 -69 -207t-186 -73q-73 0 -129.5 32.5t-89 95t-32.5 152.5q0 134 68 206.5t186 72.5q74 0 130.5 -32.5t89 -94.5t32.5 -152zM161 270q0 -91 34.5 -142t109.5 -51t109.5 51t34.5 142q0 92 -34.5 141.5t-110.5 49.5q-75 0 -109 -49.5t-34 -141.5zM590 539
h114l112 -306q13 -35 23 -67t14 -64h4q5 26 15.5 61t23.5 71l106 305h114l-231 -612q-29 -78 -77.5 -122.5t-126.5 -44.5q-25 0 -43 2.5t-31 5.5v84q10 -2 26 -4t33 -2q46 0 74 26.5t44 69.5l22 58z" />
    <glyph glyph-name="uni047A" unicode="&#x47a;" horiz-adv-x="825" 
d="M413 -60q-28 0 -46 13t-24 42q-93 13 -156 62t-95 126t-32 176q0 147 71.5 243.5t211.5 116.5q7 30 25 42t45 12t45 -12t25 -42q137 -20 209.5 -116.5t72.5 -244.5t-72 -245t-208 -118q-7 -29 -26 -42t-46 -13zM344 90q9 22 26.5 31t42.5 9q23 0 41 -9t28 -31
q86 20 128 89.5t42 178.5q0 108 -42 178t-128 89q-8 -23 -26 -32.5t-43 -9.5t-43 9.5t-27 31.5q-85 -20 -128 -89t-43 -177q0 -109 43 -178.5t129 -89.5z" />
    <glyph glyph-name="uni047B" unicode="&#x47b;" horiz-adv-x="665" 
d="M613 270q0 -116 -57.5 -186.5t-158.5 -87.5q-9 -49 -64 -49q-56 0 -65 50q-96 17 -156 86.5t-60 186.5q0 116 57.5 186t160.5 87q4 25 20 35t43 10q25 0 41 -10t21 -36q98 -16 158 -86t60 -186zM504 270q0 75 -26 122.5t-82 63.5q-13 -41 -63 -41q-52 0 -64 42
q-56 -16 -82 -63.5t-26 -123.5t26 -124.5t83 -63.5q8 20 22.5 29t40.5 9q48 0 62 -38q56 15 82.5 63.5t26.5 124.5z" />
    <glyph glyph-name="uni047C" unicode="&#x47c;" horiz-adv-x="1044" 
d="M343 912v18q0 64 35 89t86 25q38 0 74.5 -15t77.5 -29.5t92 -14.5h6v-71h-8q-62 0 -105.5 13.5t-75.5 27t-59 13.5q-48 0 -52 -56h-71zM447 746v37q29 9 44 22t15 25q0 10 -8 14.5t-18 8t-18 10.5t-8 20q0 21 15 32t41 11q30 0 48 -18.5t18 -49.5q0 -42 -35 -72t-94 -40z
M346 -10q-96 0 -159.5 48.5t-95 134t-31.5 195.5q0 108 31.5 188t90 124t141.5 44q39 0 78 -13t69 -35l-40 -78q-21 15 -46.5 26t-54.5 11q-75 0 -117.5 -70.5t-42.5 -197.5q0 -131 48.5 -206.5t146.5 -75.5q28 0 54 11t49 30v208h108v-208q23 -20 49 -30.5t57 -10.5
q97 0 146 75.5t49 206.5q0 127 -42.5 197.5t-118.5 70.5q-29 0 -54.5 -11t-46.5 -26l-39 78q29 22 68.5 35t77.5 13q83 0 141.5 -44t90 -124t31.5 -188q0 -110 -31.5 -195.5t-94.5 -134t-159 -48.5q-55 0 -98 16.5t-79 48.5q-36 -32 -79 -48.5t-97 -16.5z" />
    <glyph glyph-name="uni047D" unicode="&#x47d;" horiz-adv-x="920" 
d="M394 891q38 0 74.5 -14.5t77 -29t91.5 -14.5h7v-72h-8q-62 0 -105 13.5t-75 27.5t-60 14q-48 0 -51 -56h-72v18q0 64 35 88.5t86 24.5zM440 774q31 0 48.5 -18.5t17.5 -49.5q0 -43 -34.5 -72.5t-93.5 -39.5v37q28 9 42.5 22t14.5 26q0 10 -7.5 14.5t-17.5 8t-17.5 10
t-7.5 19.5q0 43 55 43zM295 -10q-112 0 -174.5 70t-62.5 206q0 140 60 212t161 72q37 0 66 -9.5t54 -24.5l-38 -78q-23 11 -43 17.5t-39 6.5q-112 0 -112 -195q0 -90 36.5 -139.5t100.5 -49.5q30 0 54 11t49 40v150h106v-148q25 -29 50 -41t56 -12q64 0 99 49.5t35 139.5
q0 195 -113 195q-36 0 -81 -25l-40 79q25 15 55 24.5t67 9.5q101 0 161 -72t60 -212q0 -136 -63 -206t-174 -70q-56 0 -96.5 20t-68.5 58q-28 -38 -68.5 -58t-96.5 -20z" />
    <glyph glyph-name="uni047E" unicode="&#x47e;" horiz-adv-x="929" 
d="M237 -4q-56 94 -103 212t-76.5 248t-33.5 258h112q6 -120 30 -232.5t56 -207t62 -160.5h5q6 32 18 72t26 80l86 240q-9 52 -15 104.5t-8 103.5h112q3 -81 17.5 -165t36.5 -163.5t48.5 -150.5t54.5 -127h4q56 116 89.5 266.5t34.5 339.5h112q-2 -207 -50 -388.5
t-141 -329.5h-99q-31 50 -60.5 111t-54 124.5t-40.5 118.5l-120 -354h-103zM673 889v-24l-40 -84h-19l-24 50h-86l-24 -50h-19l-24 50h-86l-24 -50h-19l-39 84v24h404z" />
    <glyph glyph-name="uni047F" unicode="&#x47f;" horiz-adv-x="817" 
d="M789 540q-7 -146 -50.5 -276t-131.5 -264h-97q-28 51 -58 112.5t-48 117.5l-114 -230h-95q-43 68 -82.5 154.5t-66 185t-28.5 200.5h106q5 -94 24 -178t44.5 -153t51.5 -118h3q8 25 23.5 52.5t28.5 54.5l69 139q-12 47 -19 100t-8 103h106q5 -122 37 -236.5t72 -214.5h4
q50 85 83 199.5t40 251.5h106zM601 715v-24l-40 -84h-19l-24 50h-86l-24 -50h-19l-24 50h-86l-24 -50h-19l-39 84v24h404z" />
    <glyph glyph-name="uni0480" unicode="&#x480;" horiz-adv-x="653" 
d="M414 724q56 0 110 -12t98 -32l-40 -91q-37 17 -79.5 29t-91.5 12q-112 0 -175 -73t-63 -201q0 -127 56 -199.5t181 -72.5q57 0 108 14v-338h-108v230q-124 0 -201.5 47t-113.5 129.5t-36 190.5t41.5 190.5t121 129.5t192.5 47z" />
    <glyph glyph-name="uni0481" unicode="&#x481;" horiz-adv-x="501" 
d="M314 549q42 0 83 -9t71 -23l-31 -85q-29 10 -62.5 18.5t-63.5 8.5q-77 0 -113.5 -46.5t-36.5 -145.5q0 -97 38.5 -142.5t111.5 -45.5q35 0 59 5.5t46 14.5v-339h-106v231q-124 2 -191 68.5t-67 206.5q0 103 34 165t93 90t135 28z" />
    <glyph glyph-name="uni0482" unicode="&#x482;" horiz-adv-x="609" 
d="M447 629l60 -35l-90 -155l141 -80l-35 -58l-139 80l-99 -171l140 -81l-34 -58l-140 80l-88 -153l-61 34l88 155l-139 81l33 58l141 -82l98 172l-140 81l34 59l140 -82z" />
    <glyph glyph-name="uni0488" unicode="&#x488;" horiz-adv-x="989" 
d="M387 601q2 43 27 69t75 26q48 0 74.5 -26.5t29.5 -68.5h-39q-3 28 -21.5 35.5t-43.5 7.5q-30 0 -46 -7t-19 -36h-37zM670 462q2 44 27 69.5t75 25.5q48 0 74.5 -26.5t29.5 -68.5h-39q-3 28 -21.5 35.5t-43.5 7.5q-30 0 -46 -7t-19 -36h-37zM107 462q2 44 27 69.5t75 25.5
q48 0 74.5 -26.5t29.5 -68.5h-39q-3 28 -21.5 35.5t-43.5 7.5q-30 0 -46 -7t-19 -36h-37zM20 224q2 44 27 69.5t75 25.5q48 0 74.5 -26.5t29.5 -68.5h-39q-3 28 -21.5 35.5t-43.5 7.5q-30 0 -46 -7t-19 -36h-37zM763 224q2 44 27 69.5t75 25.5q48 0 74.5 -26.5t29.5 -68.5
h-39q-3 28 -21.5 35.5t-43.5 7.5q-30 0 -46 -7t-19 -36h-37zM107 -20q2 44 27 69.5t75 25.5q48 0 74.5 -26.5t29.5 -68.5h-39q-3 28 -21.5 35.5t-43.5 7.5q-30 0 -46 -7t-19 -36h-37zM670 -20q2 44 27 69.5t75 25.5q48 0 74.5 -26.5t29.5 -68.5h-39q-3 28 -21.5 35.5
t-43.5 7.5q-30 0 -46 -7t-19 -36h-37zM387 -156q2 44 27 69.5t75 25.5q48 0 74.5 -26.5t29.5 -68.5h-39q-3 28 -21.5 35.5t-43.5 7.5q-30 0 -46 -7t-19 -36h-37z" />
    <glyph glyph-name="uni0489" unicode="&#x489;" horiz-adv-x="956" 
d="M532 728q-10 -41 -19.5 -88t-14.5 -83h-68l-5 7q10 38 26.5 82t33.5 82h47zM191 621q23 -36 49 -76t48 -69l-48 -48l-8 1q-20 34 -39.5 76.5t-34.5 81.5zM806 579l34 -33q-36 -22 -76 -48.5t-69 -48.5l-48 48l1 8q34 19 76.5 39t81.5 35zM20 323q41 -10 88 -19.5
t83 -14.5v-68l-7 -5q-38 10 -82 26.5t-82 33.5v47zM772 323q38 -10 82 -26.5t82 -33.5v-47q-41 10 -88 19.5t-83 14.5v68zM715 90l8 -1q19 -34 39 -76.5t35 -81.5l-33 -34q-22 36 -48.5 76t-48.5 69zM261 70l48 -48l-1 -8q-34 -20 -76.5 -39.5t-81.5 -34.5l-34 33
q36 23 76 49t69 48zM527 -17l5 -7q-10 -38 -26.5 -82t-33.5 -82h-47q10 41 19.5 88t14.5 83h68z" />
    <glyph glyph-name="uni048A" unicode="&#x48a;" horiz-adv-x="824" 
d="M390 771q-72 0 -114 18t-61 53.5t-23 87.5h97q5 -55 28 -73t75 -18q44 0 71.5 19.5t32.5 71.5h98q-6 -76 -52.5 -117.5t-151.5 -41.5zM607 -194l82 194h-99v375q0 30 1.5 67.5t3.5 74t4 62.5h-4l-376 -579h-124v714h99v-379q0 -33 -1 -70t-3 -71t-3 -57h4l374 577h124
v-620h117l-77 -288h-122z" />
    <glyph glyph-name="uni048B" unicode="&#x48b;" horiz-adv-x="701" 
d="M337 606q-72 0 -114 18t-60.5 53.5t-22.5 87.5h96q4 -53 28 -72t76 -19q44 0 71 19.5t32 71.5h99q-7 -76 -53 -117.5t-152 -41.5zM519 -188l63 188h-100v288q0 21 1 48t2 52t3 41l-276 -429h-129v539h101v-284q0 -33 -2.5 -74.5t-5.5 -71.5l277 430h129v-455h108
l-65 -272h-106z" />
    <glyph glyph-name="uni048C" unicode="&#x48c;" horiz-adv-x="622" 
d="M203 714v-85h159v-92h-159v-117h81q106 0 169.5 -27t91.5 -74t28 -106q0 -101 -67 -157t-211 -56h-200v537h-72v92h72v85h108zM284 328h-81v-238h87q171 0 171 123q0 65 -46 90t-131 25z" />
    <glyph glyph-name="uni048D" unicode="&#x48d;" horiz-adv-x="600" 
d="M189 760v-116h159v-76h-159v-246h137q116 0 171 -39t55 -116t-53 -122t-173 -45h-243v568h-76v76h76v116h106zM319 239h-130v-159h132q55 0 90 19t35 64q0 43 -32.5 59.5t-94.5 16.5z" />
    <glyph glyph-name="uni048E" unicode="&#x48e;" horiz-adv-x="617" 
d="M567 500q0 -57 -23.5 -107.5t-78.5 -81.5l53 -71l-58 -46l-67 89q-47 -12 -110 -12h-80v-271h-108v714h205q139 0 203 -56.5t64 -157.5zM203 362h73q16 0 31 0.5t28 2.5l-46 62l61 46l60 -80q22 16 34.5 41t12.5 62q0 127 -167 127h-87v-261z" />
    <glyph glyph-name="uni048F" unicode="&#x48f;" horiz-adv-x="620" 
d="M351 -10q-61 0 -100 22.5t-62 53.5h-7q1 -4 2.5 -20t3 -35.5t1.5 -33.5v-217h-106v779h86l16 -72h5q23 34 61.5 58t100.5 24q98 0 157 -70t59 -209q0 -82 -21.5 -140t-60.5 -92l52 -70l-59 -46l-60 79q-33 -11 -68 -11zM327 462q-75 0 -106 -43t-32 -132v-16
q0 -94 30 -144t110 -50q16 0 33 5l-59 75l63 47l58 -75q35 47 35 143q0 190 -132 190z" />
    <glyph glyph-name="uni0492" unicode="&#x492;" horiz-adv-x="539" 
d="M516 714v-93h-313v-222h203v-92h-203v-307h-108v307h-72v92h72v315h421z" />
    <glyph glyph-name="uni0493" unicode="&#x493;" horiz-adv-x="451" 
d="M429 539v-88h-243v-145h166v-82h-166v-224h-106v224h-74v82h74v233h349z" />
    <glyph glyph-name="uni0494" unicode="&#x494;" horiz-adv-x="675" 
d="M291 299q-22 0 -48 -2.5t-40 -4.5v-292h-108v714h425v-93h-317v-235q21 4 51.5 6.5t59.5 2.5q96 0 168.5 -36.5t112.5 -108.5t40 -178q0 -108 -35 -179.5t-95 -107t-135 -35.5q-49 0 -81 6t-63 18v95q31 -11 61.5 -17t65.5 -6q85 0 128.5 58.5t43.5 167.5q0 113 -62 170
t-172 57z" />
    <glyph glyph-name="uni0495" unicode="&#x495;" horiz-adv-x="553" 
d="M435 539v-88h-246v-145q17 2 34.5 4t35.5 2q121 0 192.5 -68.5t71.5 -213.5q0 -97 -30.5 -157.5t-81.5 -89t-112 -28.5q-69 0 -121 28v93q22 -13 51 -21t61 -8q58 0 92 44t34 140q0 94 -40 141t-127 47q-13 0 -29 -1t-31 -5v-213h-106v539h352z" />
    <glyph glyph-name="uni0496" unicode="&#x496;" horiz-adv-x="941" 
d="M868 714l-266 -345l207 -274h113v-289h-104v194h-60l-267 362v-362h-102v362l-268 -362h-120l277 368l-266 346h116l261 -346v346h102v-346l261 346h116z" />
    <glyph glyph-name="uni0497" unicode="&#x497;" horiz-adv-x="839" 
d="M765 539l-215 -261l163 -194h108v-272h-100v188h-54l-225 273v-273h-99v273l-225 -273h-117l234 278l-215 261h113l210 -262v262h99v-262l211 262h112z" />
    <glyph glyph-name="uni0498" unicode="&#x498;" horiz-adv-x="606" 
d="M538 547q0 -73 -47.5 -116t-125.5 -54v-4q92 -11 141 -55.5t49 -115.5q0 -94 -73.5 -153t-218.5 -59q-65 0 -120.5 9t-100.5 30v95q46 -22 104 -34.5t108 -12.5q95 0 142.5 33.5t47.5 95.5t-59 91t-163 29h-92v88h86q112 0 162.5 32t50.5 88q0 49 -38 75.5t-102 26.5
t-109.5 -16.5t-87.5 -43.5l-50 73q46 32 109 53.5t145 21.5q117 0 179.5 -50t62.5 -127zM286 -115q0 27 -18 55t-52 60h70q29 -22 55 -52t26 -73q0 -46 -28 -73.5t-79 -27.5q-17 0 -33.5 2.5t-29.5 6.5v65q8 -2 20.5 -4t26.5 -2q18 0 30 11t12 32z" />
    <glyph glyph-name="uni0499" unicode="&#x499;" horiz-adv-x="509" 
d="M241 549q91 0 149.5 -36t58.5 -106q0 -49 -28 -78t-75 -42v-4q32 -9 59.5 -24.5t44 -41t16.5 -66.5q0 -45 -25.5 -81.5t-79 -58t-136.5 -21.5q-60 0 -109 9t-82 26v92q34 -16 82 -29t103 -13q60 0 101.5 18t41.5 64q0 83 -153 83h-68v81h57q70 0 111.5 17t41.5 58
q0 69 -119 69q-43 0 -80 -8.5t-77 -25.5l-35 80q44 18 93.5 28t107.5 10zM242 -115q0 27 -18 55t-52 60h70q29 -22 55 -52t26 -73q0 -46 -28 -73.5t-79 -27.5q-17 0 -33.5 2.5t-29.5 6.5v65q8 -2 20.5 -4t26.5 -2q18 0 30 11t12 32z" />
    <glyph glyph-name="uni049A" unicode="&#x49a;" horiz-adv-x="695" 
d="M620 714l-295 -346l231 -273h123v-289h-104v194h-68l-304 362v-362h-108v714h108v-346l298 346h119z" />
    <glyph glyph-name="uni049B" unicode="&#x49b;" horiz-adv-x="589" 
d="M475 -189v189h-50l-236 273v-273h-106v539h106v-262l223 262h116l-225 -259l172 -196h99v-273h-99z" />
    <glyph glyph-name="uni049C" unicode="&#x49c;" horiz-adv-x="634" 
d="M326 126h-62v163l-61 73v-362h-108v714h108v-346l61 71v174h62v-102l175 203h119l-294 -345v-2l308 -367h-127l-181 216v-90z" />
    <glyph glyph-name="uni049D" unicode="&#x49d;" horiz-adv-x="556" 
d="M306 495v-81l106 125h116l-222 -256v-6l241 -277h-122l-119 138v-93h-66v169l-51 59v-273h-106v539h106v-262l51 60v158h66z" />
    <glyph glyph-name="uni049E" unicode="&#x49e;" horiz-adv-x="634" 
d="M16 542v93h73v79h108v-79h92v-93h-92v-174l298 346h119l-295 -346l309 -368h-127l-304 362v-362h-108v542h-73z" />
    <glyph glyph-name="uni049F" unicode="&#x49f;" horiz-adv-x="559" 
d="M189 760v-87h174v-74h-174v-322l223 262h116l-225 -259l244 -280h-122l-236 273v-273h-106v599h-76v74h76v87h106z" />
    <glyph glyph-name="uni04A0" unicode="&#x4a0;" horiz-adv-x="705" 
d="M692 714l-295 -346l309 -368h-126l-305 362v-362h-108v620h-162v94h270v-346l298 346h119z" />
    </font>
</defs>
</svg>
